Забить откормленного теленка и поджарить / Uccidete il vitello grasso e arrostitelo (Сальваторе Сампери / Salvatore Samperi) [1970, Италия, драма, криминал, TVRip] Sub Rus (Антон Каптелов) + Original Ita скачать торрент

Мировая классика кино, Rip, Рипы, Зарубежные фильмы

Модератор: Модераторы видео

  • Статистика раздачи
Размер: 998.23 МБ   |  Зарегистрирован: 05 апр 2016, 11:55   |   .torrent скачан: 0 раз
Сидеров: 0  [ 0 байт/сек ]     Личеров: 0  [ 0 байт/сек ]  
Список файлов : Кто скачал : Раздают : Скачивают : Кто благодарил : История : Не раздающие : Запрашивали сидеров : Внешние трекеры 
  

Забить откормленного теленка и поджарить / Uccidete il vitello grasso e arrostitelo (Сальваторе Сампери / Salvatore Samperi) [1970, Италия, драма, криминал, TVRip] Sub Rus (Антон Каптелов) + Original Ita

Сообщение Фаромир брат » 05 апр 2016, 11:55

Забить откормленного теленка и поджарить / Uccidete il vitello grasso e arrostitelo
Страна: Италия
Жанр: драма, криминал
Год выпуска: 1970
Продолжительность: 01:32:13

Перевод: Субтитры Антон Каптелов
Cубтитры: русские
Оригинальная аудиодорожка: итальянский

Режиссер: Сальваторе Сампери / Salvatore Samperi

В ролях: Жан Сорель, Марилу Толо, Джиджи Баллиста, Маурицио Дельи Эспости, Норис Фиорина, Пьер Паоло Каппони, Алека Пайзи, Бернадетт Келл, Джанни Пулоне, Франка Шиутто

Описание: Прервав учебу в швейцарском колледже, Энрико возвращается домой в Италию на похороны своего отца. Он понимает, что его смерть была не случайной и, заручившись поддержкой полиции, начинает собственное расследование произошедшего. Первыми и основными подозреваемыми в совершенном преступлении становятся старший брат молодого человека и его кузина.

Качество видео: TVRip
Формат видео: AVI

Видео: 704x304 (2.32:1), 25 fps, XviD build 47 ~1375 kbps avg, 0.26 bit/pixel
Аудио: 48 kHz, MPEG Layer 3, 2 ch, ~128.00 kbps avg
Формат субтитров: softsub (SRT)
Format : AVI
Format/Info : Audio Video Interleave
File size : 998 MiB
Duration : 1h 32mn
Overall bit rate : 1 513 Kbps

Video
ID : 0
Format : MPEG-4 Visual
Format profile : [email protected]
Format settings, BVOP : No
Format settings, QPel : No
Format settings, GMC : No warppoints
Format settings, Matrix : Default (H.263)
Codec ID : XVID
Codec ID/Hint : XviD
Duration : 1h 32mn
Bit rate : 1 376 Kbps
Width : 704 pixels
Height : 304 pixels
Display aspect ratio : 2.35:1
Frame rate : 25.000 fps
Color space : YUV
Chroma subsampling : 4:2:0
Bit depth : 8 bits
Scan type : Progressive
Compression mode : Lossy
Bits/(Pixel*Frame) : 0.257
Stream size : 907 MiB (91%)
Writing library : XviD 1.2.0.dev47 (UTC 2006-11-01)

Audio
ID : 1
Format : MPEG Audio
Format version : Version 1
Format profile : Layer 3
Mode : Joint stereo
Mode extension : MS Stereo
Codec ID : 55
Codec ID/Hint : MP3
Duration : 1h 32mn
Bit rate mode : Constant
Bit rate : 128 Kbps
Channel(s) : 2 channels
Sampling rate : 48.0 KHz
Compression mode : Lossy
Stream size : 84.4 MiB (8%)
Alignment : Aligned on interleaves
Interleave, duration : 40 ms (1.00 video frame)
Interleave, preload duration : 504 ms
Writing library : LAME3.97
Encoding settings : -m j -V 4 -q 2 -lowpass 17 -b 128



11
00:10:30,823 --> 00:10:32,886
Я очень рад, знайте!

12
00:10:33,356 --> 00:10:35,338
Я действительно хотел
вас видеть.

13
00:10:35,852 --> 00:10:37,592
Честное слово.

14
00:10:39,117 --> 00:10:40,961
Мы должны держаться вместе.

15
00:10:41,300 --> 00:10:43,943
Мы теперь должны быть едины,
все трое!

16
00:10:45,044 --> 00:10:47,619
А что случилось?
Я слышал, тебя покинули все слуги.

17
00:10:49,638 --> 00:10:51,458
Ну, знаешь, обычные дела.

18
00:10:51,808 --> 00:10:54,183
Как бы там ни было, Верде
заботится обо всех домашних делах.

19
00:10:54,557 --> 00:10:56,220
А Талия?

20
00:10:56,805 --> 00:11:00,692
А Верде не писала тебе?
К сожалению, мы вынуждены были
расстаться с ней.

21
00:11:01,760 --> 00:11:04,252
Она сошла с ума. Неизлечимо.

22
00:12:58,565 --> 00:13:00,720
Привет, Талия! Как ты?

23
00:13:03,320 --> 00:13:05,153
Я ждала тебя.

24
00:13:05,262 --> 00:13:06,784
Присядь!

25
00:13:07,629 --> 00:13:09,934
Я знал, что ты придешь ко мне.

26
00:13:12,192 --> 00:13:14,251
Какой же ты красивый!

27
00:13:15,301 --> 00:13:18,341
Ты стал еще красивее, чем был мальчишкой.

28
00:13:18,827 --> 00:13:21,891
Все тогда говорили, что такого ребенка,
как ты...

29
00:13:22,050 --> 00:13:23,915
...они никогда не видели.

30
00:13:25,226 --> 00:13:27,705
Но народ в Падуе - кретины!

31
00:13:29,726 --> 00:13:33,232
Они верят, что красота - это то,
что ты ешь.

32
00:13:34,304 --> 00:13:36,810
Либо ты это ешь, либо нет...
   
Торрент: Зарегистрирован [05 апр 2016, 11:55] Скачать торрент
Скачать торрент
О MediaGet
[ Размер 20.1 КБ / Просмотров 55 ]

Статус:
 
Приватный: Нет (DHT включён)
Размер: 998.23 МБ (1 046 716 173 байт)
   
Аватара пользователя

Сид-сен-сей
Сид-сен-сей
 
Раздал: 24.31 ТБ
Скачал: 1.72 ТБ
Ратио: 20.885
Сообщения: 7897
Фото: 125
Зарегистрирован: 26 ноя 2012, 17:20
Medals: 2
1000 раздач! (1) Меценат №2 (1)

  • Похожие торренты
    Ответы
    Просмотры
    Последнее сообщение

Вернуться в Зарубежные фильмы (Rip's)

Кто сейчас на конференции

Зарегистрированные пользователи: нет зарегистрированных пользователей

Ресурс не предоставляет электронные версии произведений, а занимается лишь коллекционированием и каталогизацией ссылок, присылаемых и публикуемых на форуме нашими читателями. Если вы являетесь правообладателем какого-либо представленного материала и не желаете чтобы ссылка на него находилась в нашем каталоге, свяжитесь с нами и мы незамедлительно удалим её. Файлы для обмена на трекере предоставлены пользователями сайта, и администрация не несёт ответственности за их содержание. Просьба не заливать файлы, защищенные авторскими правами, а также файлы нелегального содержания!
cron