Имя / Le prénom (Александр де ля Пательер / Alexandre de La Patellière, Матье Делапорт / Matthieu Delaporte) [2012, Франция, Бельгия, Комедия, DVDRip] VO скачать торрент

Мировая классика кино, Rip, Рипы, Зарубежные фильмы

Модератор: Модераторы видео

  • Статистика раздачи
Размер: 698.14 МБ   |  Зарегистрирован: 27 мар 2016, 23:25   |   .torrent скачан: 0 раз
Сидеров: 0  [ 0 байт/сек ]     Личеров: 0  [ 0 байт/сек ]  
Список файлов : Кто скачал : Раздают : Скачивают : Кто благодарил : История : Не раздающие : Запрашивали сидеров : Внешние трекеры 
  

Имя / Le prénom (Александр де ля Пательер / Alexandre de La Patellière, Матье Делапорт / Matthieu Delaporte) [2012, Франция, Бельгия, Комедия, DVDRip] VO

Сообщение Админ » 27 мар 2016, 23:25

Имя / Le prénom

Страна: Франция, Бельгия
Жанр: Комедия
Год выпуска: 2012
Продолжительность: 01:44:37

Перевод: Одноголосый закадровый Kenum
Cубтитры: Нет
Режиссер: Александр де ля Пательер / Alexandre de La Patellière, Матье Делапорт / Matthieu Delaporte

В ролях: Патрик Брюэль (Patrick Bruel), Валери Бенгиги (Valérie Benguigui), Шарль Берлин (Charles Berling), Гийом Де Тонкедек (Guillaume De Tonquédec), Жюдит Эль Зейн (Judith El Zein), Франсуаза Фабиан (Françoise Fabian) и др.

Описание: Венсан готовится стать отцом в первый раз. Он приглашен на обед к своей сестре и ее мужу. Туда же приходит их друг детства Клод. В ожидании молодой супруги Венсана Анны, они обсуждают будущее отцовство, пребывая в прекрасном настроении. Но ответ Венсана на вопрос об имени будущего ребенка производит эффект разорвавшейся бомбы...

Сэмпл: http://multi-up.com/774373

Качество видео: DVDRip
Формат видео: AVI

Видео: 688x288 (2.39:1), 25 fps, XviD build 50 ~795 kbps avg, 0.16 bit/pixel
Аудио: 48 kHz, MPEG Layer 3, 2 ch, ~128.00 kbps avg
Общее
Полное имя : E:\Imya_2012_ViruseProject_700.avi
Формат : AVI
Формат/Информация : Audio Video Interleave
Размер файла : 698 Мбайт
Продолжительность : 1 ч. 44 м.
Общий поток : 933 Кбит/сек
Программа кодирования : VirtualDubMod 1.5.10.3 (build 2550/release)
Библиотека кодирования : VirtualDubMod build 2550/release

Видео
Идентификатор : 0
Формат : MPEG-4 Visual
Профиль формата : Advanced [email protected]
Параметр BVOP формата : 1
Параметр QPel формата : Нет
Параметр GMC формата : Без точки перехода
Параметр матрицы формата : Default (MPEG)
Идентификатор кодека : XVID
Идентификатор кодека/Подсказка : XviD
Продолжительность : 1 ч. 44 м.
Битрейт : 795 Кбит/сек
Ширина : 688 пикселей
Высота : 288 пикселей
Соотношение сторон : 2,40:1
Частота кадров : 25,000 кадров/сек
Цветовое пространство : YUV
Субдискретизация насыщенности : 4:2:0
Битовая глубина : 8 бит
Тип развёртки : Прогрессивная
Метод сжатия : С потерями
Бит/(Пиксели*Кадры) : 0.161
Размер потока : 595 Мбайт (85%)
Библиотека кодирования : XviD 1.2.1 (UTC 2008-12-04)

Аудио
Идентификатор : 1
Формат : MPEG Audio
Версия формата : Version 1
Профиль формата : Layer 3
Идентификатор кодека : 55
Идентификатор кодека/Подсказка : MP3
Продолжительность : 1 ч. 44 м.
Вид битрейта : Постоянный
Битрейт : 128 Кбит/сек
Каналы : 2 канала
Частота : 48,0 КГц
Метод сжатия : С потерями
Размер потока : 95,8 Мбайт (14%)
Выравнивание : Соединение по промежуткам
Продолжительность промежутка : 40 мс. (1,00 видеокадр)
Время предзагрузки промежутка : 504 мс.
   
Торрент: Зарегистрирован [27 мар 2016, 23:25] Скачать торрент
Скачать торрент
О MediaGet
[ Размер 14.14 КБ / Просмотров 114 ]

Статус:
 
Приватный: Нет (DHT включён)
Размер: 698.14 МБ (732 057 600 байт)
   
Аватара пользователя

Администратор
Администратор
 
Раздал: 2.33 ПБ
Скачал: 1.02 ПБ
Ратио: 2.281
Сообщения: 3723
Зарегистрирован: 07 май 2010, 17:29
Medals: 1
Лучший релиз за месяц (1)
  • Личное сообщение
  • ICQ

  • Похожие торренты
    Ответы
    Просмотры
    Последнее сообщение

Вернуться в Зарубежные фильмы (Rip's)

Кто сейчас на конференции

Зарегистрированные пользователи: bigcatwar, ванюшка

Ресурс не предоставляет электронные версии произведений, а занимается лишь коллекционированием и каталогизацией ссылок, присылаемых и публикуемых на форуме нашими читателями. Если вы являетесь правообладателем какого-либо представленного материала и не желаете чтобы ссылка на него находилась в нашем каталоге, свяжитесь с нами и мы незамедлительно удалим её. Файлы для обмена на трекере предоставлены пользователями сайта, и администрация не несёт ответственности за их содержание. Просьба не заливать файлы, защищенные авторскими правами, а также файлы нелегального содержания!
cron