Интерстеллар / Interstellar (Кристофер Нолан / Christopher Nolan) [2014, США, Фантастика, драма, приключения, BDRip] [IMAX Edition] Dub скачать торрент

Мировая классика кино, Rip, Рипы, Зарубежные фильмы

Модератор: Модераторы видео

  • Статистика раздачи
Размер: 1.46 ГБ   |  Зарегистрирован: 27 мар 2016, 23:25   |   .torrent скачан: 7 раз
Сидеров: 0  [ 0 байт/сек ]     Личеров: 0  [ 0 байт/сек ]  
Список файлов : Кто скачал : Раздают : Скачивают : Кто благодарил : История : Не раздающие : Запрашивали сидеров : Внешние трекеры 
  

Интерстеллар / Interstellar (Кристофер Нолан / Christopher Nolan) [2014, США, Фантастика, драма, приключения, BDRip] [IMAX Edition] Dub

Сообщение Админ » 27 мар 2016, 23:25

Интерстеллар / Interstellar
«Следующий шаг человечества станет величайшим»

Год выпуска: 2014
Выпущено: США, Великобритания, Канада / Warner Bros. Pictures
Жанр: фантастика, драма, приключения
Продолжительность: 02:49:03
Перевод: Профессиональный (полное дублирование)
Cубтитры: нет
Режиссёр:
Кристофер Нолан / Christopher Nolan
В ролях:
Мэттью МакКонахи (Cooper), Энн Хэтэуэй (Brand), Джессика Честейн (Murph), Маккензи Фой (Murph (10 Yrs.)), Майкл Кейн (Professor Brand), Дэвид Гяси (Romilly), Уэс Бентли (Doyle), Кейси Аффлек (Tom), Джон Литгоу (Donald), Мэтт Дэймон (Mann), Тофер Грейс (Getty), Эллен Бёрстин (Murph (older))
Описание:
Когда засуха приводит человечество к продовольственному кризису, коллектив исследователей и учёных отправляется сквозь червоточину (которая предположительно соединяет области пространства-времени через большое расстояние) в путешествие, чтобы превзойти прежние ограничения для космических путешествий человека и переселить человечество на другую планету.
Релиз групп | | IMDB | КиноПоиск | Сэмпл |
Качество: BDRip [Blu-ray CEE | 1080p | HDCLUB]
Формат: AVI

Видео: 656x368 (1.78:1), 23.976 fps, XviD build 73 ~1101 kbps avg, 0.19 bit/pixel
Аудио: 48 kHz, MPEG Layer 3, 2 ch, ~128.00 kbps avg

Код:
Код: Выделить всё
General
Complete name                            : D:\Interstellar_2014_BDRip_[IMAX]_by_Dalemake.avi
Format                                   : AVI
Format/Info                              : Audio Video Interleave
File size                                : 1.46 GiB
Duration                                 : 2h 49mn
Overall bit rate                         : 1 239 Kbps
Writing application                      : VirtualDubMod 1.5.10.3 | www.virtualdub-fr.org || (build 2550/release)
Writing library                          : VirtualDubMod build 2550/release

Video
ID                                       : 0
Format                                   : MPEG-4 Visual
Format profile                           : Advanced [email protected]
Format settings, BVOP                    : 1
Format settings, QPel                    : No
Format settings, GMC                     : No warppoints
Format settings, Matrix                  : Custom
Codec ID                                 : XVID
Codec ID/Hint                            : XviD
Duration                                 : 2h 49mn
Bit rate                                 : 1 102 Kbps
Width                                    : 656 pixels
Height                                   : 368 pixels
Display aspect ratio                     : 16:9
Frame rate                               : 23.976 fps
Color space                              : YUV
Chroma subsampling                       : 4:2:0
Bit depth                                : 8 bits
Scan type                                : Progressive
Compression mode                         : Lossy
Bits/(Pixel*Frame)                       : 0.190
Stream size                              : 1.30 GiB (89%)
Writing library                          : XviD 73

Audio
ID                                       : 1
Format                                   : MPEG Audio
Format version                           : Version 1
Format profile                           : Layer 3
Codec ID                                 : 55
Codec ID/Hint                            : MP3
Duration                                 : 2h 49mn
Bit rate mode                            : Constant
Bit rate                                 : 128 Kbps
Channel(s)                               : 2 channels
Sampling rate                            : 48.0 KHz
Compression mode                         : Lossy
Stream size                              : 155 MiB (10%)
Alignment                                : Aligned on interleaves
Interleave, duration                     : 42 ms (1.00 video frame)
Interleave, preload duration             : 504 ms
Writing library                          : LAME3.99r
Encoding settings                        : -m s -V 4 -q 2 -lowpass 17 -b 128


   
Торрент: Зарегистрирован [27 мар 2016, 23:25] Скачать торрент
Скачать торрент
О MediaGet
[ Размер 15.16 КБ / Просмотров 131 ]

Статус:
 
Приватный: Нет (DHT включён)
Размер: 1.46 ГБ (1 571 250 176 байт)
   
Аватара пользователя

Администратор
Администратор
 
Раздал: 2.33 ПБ
Скачал: 1.02 ПБ
Ратио: 2.281
Сообщения: 3723
Зарегистрирован: 07 май 2010, 17:29
Medals: 1
Лучший релиз за месяц (1)
  • Личное сообщение
  • ICQ

  • Похожие торренты
    Ответы
    Просмотры
    Последнее сообщение

Вернуться в Зарубежные фильмы (Rip's)

Кто сейчас на конференции

Зарегистрированные пользователи: bigcatwar, ванюшка

Ресурс не предоставляет электронные версии произведений, а занимается лишь коллекционированием и каталогизацией ссылок, присылаемых и публикуемых на форуме нашими читателями. Если вы являетесь правообладателем какого-либо представленного материала и не желаете чтобы ссылка на него находилась в нашем каталоге, свяжитесь с нами и мы незамедлительно удалим её. Файлы для обмена на трекере предоставлены пользователями сайта, и администрация не несёт ответственности за их содержание. Просьба не заливать файлы, защищенные авторскими правами, а также файлы нелегального содержания!
cron