Мистер Холмс / Mr. Holmes (Билл Кондон / Bill Condon) [2015, Великобритания, Драма, криминал, детектив, BDRip] MVO + AVO (Сербин) скачать торрент

Мировая классика кино, Rip, Рипы, Зарубежные фильмы

Модератор: Модераторы видео

  • Статистика раздачи
Размер: 1.73 ГБ   |  Зарегистрирован: 25 мар 2016, 02:39   |   .torrent скачан: 5 раз
Сидеров: 0  [ 0 байт/сек ]     Личеров: 0  [ 0 байт/сек ]  
Список файлов : Кто скачал : Раздают : Скачивают : Кто благодарил : История : Не раздающие : Запрашивали сидеров : Внешние трекеры 
  

Мистер Холмс / Mr. Holmes (Билл Кондон / Bill Condon) [2015, Великобритания, Драма, криминал, детектив, BDRip] MVO + AVO (Сербин)

Сообщение Админ » 25 мар 2016, 02:39

Мистер Холмс / Mr. Holmes

Год выпуска: 2015
Выпущено: Великобритания, США / AI-Film
Жанр: драма, криминал, детектив
Продолжительность: 01:43:44
Перевод (1): Профессиональный (многоголосый закадровый)
Перевод (2): Авторский (одноголосый закадровый) Юрий Сербин
Cубтитры: нет
Режиссер:
Билл Кондон / Bill Condon
В ролях:
Иэн МакКеллен (Sherlock Holmes), Лора Линни (Mrs. Munro), Майло Паркер (Roger), Хироюки Санада (Tamiki Umezaki), Хэтти Морахэн (Ann Kelmot), Патрик Кеннеди (Thomas Kelmot), Роджер Аллам (Dr. Barrie), Филип Дэвис (Inspector Gilbert), Фрэнсис де ла Тур (Madame Schirmer), Чарльз Мэддокс (Oswald)
Описание:
Действие развернется в 1947 году, а речь в фильме пойдет об отошедшем от дел Шерлоке Холмсе, живущем в сонной деревушке в Сассексе вместе с горничной миссис Манро и сыном, который занимается сыском в качестве хобби. Несмотря на уединенный образ жизни, знаменитому сыщику с Бейкер-стрит по-прежнему не дает покоя тайна так и нераскрытого 30 лет назад дела.
Релиз групп | | IMDB | КиноПоиск | Сэмпл (MVO) | Сэмпл (Сербин) |
Качество: BDRip [Mr.Holmes.2015.1080p.BluRay.AVC.DTS-HD.MA.5.1-RARBG]
Формат: AVI

Видео: 720x304 (2.37:1), 23.976 fps, XviD build 67 ~1611 kbps avg, 0.31 bit/pixel
Аудио #1: 48 kHz, AC3 Dolby Digital, 3/2 (L,C,R,l,r) + LFE ch, ~384 kbps avg (MVO) iTunes Russia
Аудио #2: 48 kHz, AC3 Dolby Digital, 3/2 (L,C,R,l,r) + LFE ch, ~384 kbps avg (AVO) Юрий Сербин отдельно

Код:
Код: Выделить всё
General
Complete name                            : D:\Mister_Holmes_2015_BDRip_iT_by_Dalemake.avi
Format                                   : AVI
Format/Info                              : Audio Video Interleave
File size                                : 1.45 GiB
Duration                                 : 1h 43mn
Overall bit rate                         : 2 005 Kbps
Writing application                      : VirtualDubMod 1.5.10.3 | www.virtualdub-fr.org || (build 2550/release)
Writing library                          : VirtualDubMod build 2550/release

Video
ID                                       : 0
Format                                   : MPEG-4 Visual
Format profile                           : Advanced [email protected]
Format settings, BVOP                    : 1
Format settings, QPel                    : No
Format settings, GMC                     : No warppoints
Format settings, Matrix                  : Custom
Codec ID                                 : XVID
Codec ID/Hint                            : XviD
Duration                                 : 1h 43mn
Bit rate                                 : 1 612 Kbps
Width                                    : 720 pixels
Height                                   : 304 pixels
Display aspect ratio                     : 2.35:1
Frame rate                               : 23.976 (23976/1000) fps
Color space                              : YUV
Chroma subsampling                       : 4:2:0
Bit depth                                : 8 bits
Scan type                                : Progressive
Compression mode                         : Lossy
Bits/(Pixel*Frame)                       : 0.307
Stream size                              : 1.17 GiB (80%)
Writing library                          : XviD 67

Audio
ID                                       : 1
Format                                   : AC-3
Format/Info                              : Audio Coding 3
Mode extension                           : CM (complete main)
Format settings, Endianness              : Big
Codec ID                                 : 2000
Duration                                 : 1h 43mn
Bit rate mode                            : Constant
Bit rate                                 : 384 Kbps
Channel(s)                               : 6 channels
Channel positions                        : Front: L C R, Side: L R, LFE
Sampling rate                            : 48.0 KHz
Frame rate                               : 31.250 fps (1536 spf)
Compression mode                         : Lossy
Stream size                              : 285 MiB (19%)
Alignment                                : Split accross interleaves
Interleave, duration                     : 42 ms (1.00 video frame)
Interleave, preload duration             : 500 ms


   
Торрент: Зарегистрирован [25 мар 2016, 02:39] Скачать торрент
Скачать торрент
О MediaGet
[ Размер 18.04 КБ / Просмотров 101 ]

Статус:
 
Приватный: Нет (DHT включён)
Размер: 1.73 ГБ (1 858 988 182 байт)
   
Аватара пользователя

Администратор
Администратор
 
Раздал: 2.33 ПБ
Скачал: 1.02 ПБ
Ратио: 2.281
Сообщения: 3723
Зарегистрирован: 07 май 2010, 17:29
Medals: 1
Лучший релиз за месяц (1)
  • Личное сообщение
  • ICQ

Вернуться в Зарубежные фильмы (Rip's)

Кто сейчас на конференции

Зарегистрированные пользователи: bigcatwar, ванюшка

Ресурс не предоставляет электронные версии произведений, а занимается лишь коллекционированием и каталогизацией ссылок, присылаемых и публикуемых на форуме нашими читателями. Если вы являетесь правообладателем какого-либо представленного материала и не желаете чтобы ссылка на него находилась в нашем каталоге, свяжитесь с нами и мы незамедлительно удалим её. Файлы для обмена на трекере предоставлены пользователями сайта, и администрация не несёт ответственности за их содержание. Просьба не заливать файлы, защищенные авторскими правами, а также файлы нелегального содержания!
cron