Все ошибки зарыты / All Mistakes Buried (Тим МакКанн / Tim McCann) [2015, США, Триллер, драма, WEB-DLRip] DVO (Parovoz Production) + Original Eng скачать торрент

Мировая классика кино, Rip, Рипы, Зарубежные фильмы

Модератор: Модераторы видео

  • Статистика раздачи
Размер: 1.38 ГБ   |  Зарегистрирован: 24 мар 2016, 05:34   |   .torrent скачан: 1 раз
Сидеров: 0  [ 0 байт/сек ]     Личеров: 0  [ 0 байт/сек ]  
Список файлов : Кто скачал : Раздают : Скачивают : Кто благодарил : История : Не раздающие : Запрашивали сидеров : Внешние трекеры 
  

Все ошибки зарыты / All Mistakes Buried (Тим МакКанн / Tim McCann) [2015, США, Триллер, драма, WEB-DLRip] DVO (Parovoz Production) + Original Eng

Сообщение Админ » 24 мар 2016, 05:34


Все ошибки зарыты
All Mistakes Buried

Страна: США
Жанр: Триллер, драма
Год выпуска: 2015
Продолжительность: 01:22:27
Перевод: Любительский (двухголосый закадровый) Parovoz Production
Cубтитры: нет
Оригинальная аудиодорожка: английский

Режиссер: Тим МакКанн / Tim McCann
В ролях: Ванесса Ферлито, Сэм Трэммелл, Мисси Ягер, Николас М. Лоб, Мария МакКанн, Карл Палмер, Бенжамин Брант Бикхэм, Сьюэнн Хан, Шэйн Гилбо
Описание: Однажды случилось то, что расшевелило последние остатки человечности внутри загнивающего зависимого: преступники украли прекрасный кулон, который Сонни годы назад подарил супруге. Он свято верит, что если вернёт кулон - все ошибки будут похоронены, жена вернётся и жизнь наладится. Ради воплощения мечты он пускается в опасную авантюру и погружается в самое сердце криминального мира его небольшого южного городка, восстав против кровожадных убийц и безжалостных бандитов.

Качество видео: WEB-DLRip
Формат видео: AVI
Видео: XviD 720x400 (16:9), 23.976 fps, XviD build 73 ~1993 kbps avg, 0.289 bit/pixel
Аудио: 48 kHz, AC3 Dolby Digital, 2/0 (L,R) ch, ~192 kbps - RUS
Аудио 2: 48 kHz, AC3 Dolby Digital, 2/0 (L,R) ch, ~192 kbps - ENG
General
Complete name : D:\Фильмы\All Mistakes Buried.2015.L2.WEB-DLRip.avi
Format : AVI
Format/Info : Audio Video Interleave
File size : 1.38 GiB
Duration : 1h 22mn
Overall bit rate : 2 391 Kbps
Writing application : VirtualDubMod 1.5.10.3 | www.virtualdub-fr.org || (build 2550/release)
Writing library : VirtualDubMod build 2550/release
Video
ID : 0
Format : MPEG-4 Visual
Format profile : Advanced [email protected]
Format settings, BVOP : 2
Format settings, QPel : No
Format settings, GMC : No warppoints
Format settings, Matrix : Default (H.263)
Muxing mode : Packed bitstream
Codec ID : XVID
Codec ID/Hint : XviD
Duration : 1h 22mn
Bit rate : 1 993 Kbps
Width : 720 pixels
Height : 400 pixels
Display aspect ratio : 16:9
Frame rate : 23.976 (23976/1000) fps
Color space : YUV
Chroma subsampling : 4:2:0
Bit depth : 8 bits
Scan type : Progressive
Compression mode : Lossy
Bits/(Pixel*Frame) : 0.289
Stream size : 1.15 GiB (83%)
Writing library : XviD 66

Audio #1
ID : 1
Format : AC-3
Format/Info : Audio Coding 3
Mode extension : CM (complete main)
Format settings, Endianness : Big
Codec ID : 2000
Duration : 1h 22mn
Bit rate mode : Constant
Bit rate : 192 Kbps
Channel(s) : 2 channels
Channel positions : Front: L R
Sampling rate : 48.0 KHz
Frame rate : 31.250 fps (1536 spf)
Compression mode : Lossy
Stream size : 113 MiB (8%)
Alignment : Split accross interleaves
Interleave, duration : 42 ms (1.00 video frame)
Interleave, preload duratio : 500 ms

Audio #2
ID : 2
Format : AC-3
Format/Info : Audio Coding 3
Mode extension : CM (complete main)
Format settings, Endianness : Big
Codec ID : 2000
Duration : 1h 22mn
Bit rate mode : Constant
Bit rate : 192 Kbps
Channel(s) : 2 channels
Channel positions : Front: L R
Sampling rate : 48.0 KHz
Frame rate : 31.250 fps (1536 spf)
Compression mode : Lossy
Stream size : 113 MiB (8%)
Alignment : Split accross interleaves
Interleave, duration : 42 ms (1.00 video frame)
Interleave, preload duratio : 500 ms


   
Торрент: Зарегистрирован [24 мар 2016, 05:34] Скачать торрент
Скачать торрент
О MediaGet
[ Размер 14.35 КБ / Просмотров 110 ]

Статус:
 
Приватный: Нет (DHT включён)
Размер: 1.38 ГБ (1 478 690 816 байт)
   
Аватара пользователя

Администратор
Администратор
 
Раздал: 2.33 ПБ
Скачал: 1.02 ПБ
Ратио: 2.281
Сообщения: 3723
Зарегистрирован: 07 май 2010, 17:29
Medals: 1
Лучший релиз за месяц (1)
  • Личное сообщение
  • ICQ

  • Похожие торренты
    Ответы
    Просмотры
    Последнее сообщение

Вернуться в Зарубежные фильмы (Rip's)

Кто сейчас на конференции

Зарегистрированные пользователи: bigcatwar, ванюшка

Ресурс не предоставляет электронные версии произведений, а занимается лишь коллекционированием и каталогизацией ссылок, присылаемых и публикуемых на форуме нашими читателями. Если вы являетесь правообладателем какого-либо представленного материала и не желаете чтобы ссылка на него находилась в нашем каталоге, свяжитесь с нами и мы незамедлительно удалим её. Файлы для обмена на трекере предоставлены пользователями сайта, и администрация не несёт ответственности за их содержание. Просьба не заливать файлы, защищенные авторскими правами, а также файлы нелегального содержания!
cron