Уцелевшая / Выжившая / Survivor (Джеймс МакТиг / James McTeigue) [2015, США, Великобритания, боевик, триллер, HDRip] VO скачать торрент

Мировая классика кино, Rip, Рипы, Зарубежные фильмы

Модератор: Модераторы видео

  • Статистика раздачи
Размер: 1.46 ГБ   |  Зарегистрирован: 21 мар 2016, 01:00   |   .torrent скачан: 6 раз
Сидеров: 0  [ 0 байт/сек ]     Личеров: 0  [ 0 байт/сек ]  
Список файлов : Кто скачал : Раздают : Скачивают : Кто благодарил : История : Не раздающие : Запрашивали сидеров : Внешние трекеры 
  

Уцелевшая / Выжившая / Survivor (Джеймс МакТиг / James McTeigue) [2015, США, Великобритания, боевик, триллер, HDRip] VO

Сообщение Админ » 21 мар 2016, 01:00

Уцелевшая / Выжившая / Survivor

Страна: США, Великобритания
Жанр: боевик, триллер
Год выпуска: 2015
Продолжительность: 01:36:27

Перевод: Одноголосый закадровый (Хихикающий доктор по переводу Enigma)
Cубтитры: нет
Режиссер: Джеймс МакТиг / James McTeigue

В ролях: Милла Йовович, Пирс Броснан, Дилан МакДермотт, Анджела Бассетт, Джеймс Д’Арси, Антония Томас, Фрэнсис де ла Тур, Роберт Форстер, Роджер Рис, Кори Джонсон, Шон Тил,
Катаржина Волейнио.

Описание: История закручена вокруг сотрудницы Госдепартамента США, которая была отправлена своим начальством в американское посольство в Лондоне, чтобы предотвратить проникновение в страну террористов. Однако все пошло не так, как планировалось: неожиданно героиня сама становится одной из главных подозреваемых. За преступления, в которых ее обвиняют - смертная казнь, поэтому она пускается в бега, чтобы доказать свою невиновность, а также предотвратить террористическую атаку на Нью-Йорк в канун Рождества.

Доп. информация:
Рейтинг PG-13 - Детям до 13 лет просмотр не желателен

Сэмпл: http://multi-up.com/1052005

Качество видео: HDRip
Формат видео: AVI

Видео: 720x304 (2.37:1), 23.976 fps, XviD build 50 ~1775 kbps avg, 0.34 bit/pixel
Аудио: 48 kHz, AC3 Dolby Digital, 3/2 (L,C,R,l,r) + LFE ch, ~384 kbps
General
Complete name : D:\фильмы\Ucelevsha9.2015.L1.HDRip.avi
Format : AVI
Format/Info : Audio Video Interleave
File size : 1.46 GiB
Duration : 1h 36mn
Overall bit rate : 2 168 Kbps
Writing application : VirtualDubMod 1.5.10.2 (build 2540/release)
Writing library : VirtualDubMod build 2540/release

Video
ID : 0
Format : MPEG-4 Visual
Format profile : Advanced [email protected]
Format settings, BVOP : 2
Format settings, QPel : No
Format settings, GMC : No warppoints
Format settings, Matrix : Custom
Codec ID : XVID
Codec ID/Hint : XviD
Duration : 1h 36mn
Bit rate : 1 775 Kbps
Width : 720 pixels
Height : 304 pixels
Display aspect ratio : 2.35:1
Frame rate : 23.976 fps
Color space : YUV
Chroma subsampling : 4:2:0
Bit depth : 8 bits
Scan type : Progressive
Compression mode : Lossy
Bits/(Pixel*Frame) : 0.338
Stream size : 1.20 GiB (82%)
Writing library : XviD 1.2.1 (UTC 2008-12-04)

Audio
ID : 1
Format : AC-3
Format/Info : Audio Coding 3
Mode extension : CM (complete main)
Format settings, Endianness : Big
Codec ID : 2000
Duration : 1h 36mn
Bit rate mode : Constant
Bit rate : 384 Kbps
Channel(s) : 6 channels
Channel positions : Front: L C R, Side: L R, LFE
Sampling rate : 48.0 KHz
Bit depth : 16 bits
Compression mode : Lossy
Stream size : 265 MiB (18%)
Alignment : Split accross interleaves
Interleave, duration : 42 ms (1.00 video frame)
Interleave, preload duration : 500 ms
   
Торрент: Зарегистрирован [21 мар 2016, 01:00] Скачать торрент
Скачать торрент
О MediaGet
[ Размер 15.16 КБ / Просмотров 107 ]

Статус:
 
Приватный: Нет (DHT включён)
Размер: 1.46 ГБ (1 568 344 064 байт)
   
Аватара пользователя

Администратор
Администратор
 
Раздал: 2.33 ПБ
Скачал: 1.02 ПБ
Ратио: 2.281
Сообщения: 3723
Зарегистрирован: 07 май 2010, 17:29
Medals: 1
Лучший релиз за месяц (1)
  • Личное сообщение
  • ICQ

  • Похожие торренты
    Ответы
    Просмотры
    Последнее сообщение

Вернуться в Зарубежные фильмы (Rip's)

Кто сейчас на конференции

Зарегистрированные пользователи: bigcatwar

Ресурс не предоставляет электронные версии произведений, а занимается лишь коллекционированием и каталогизацией ссылок, присылаемых и публикуемых на форуме нашими читателями. Если вы являетесь правообладателем какого-либо представленного материала и не желаете чтобы ссылка на него находилась в нашем каталоге, свяжитесь с нами и мы незамедлительно удалим её. Файлы для обмена на трекере предоставлены пользователями сайта, и администрация не несёт ответственности за их содержание. Просьба не заливать файлы, защищенные авторскими правами, а также файлы нелегального содержания!
cron