Истина в вине / Сезон 1 / Серии: 1-4 из 4 (Дмитрий Сорокин) [2015, драма, HDTV (1080i)] скачать торрент

Мировая классика кино, Rip, Рипы, Зарубежные фильмы

Модератор: Модераторы видео

  • Статистика раздачи
Размер: 10.52 ГБ   |  Зарегистрирован: 21 мар 2016, 00:20   |   .torrent скачан: 0 раз
Сидеров: 0  [ 0 байт/сек ]     Личеров: 0  [ 0 байт/сек ]  
Список файлов : Кто скачал : Раздают : Скачивают : Кто благодарил : История : Не раздающие : Запрашивали сидеров : Внешние трекеры 
  

Истина в вине / Сезон 1 / Серии: 1-4 из 4 (Дмитрий Сорокин) [2015, драма, HDTV (1080i)]

Сообщение Админ » 21 мар 2016, 00:26

Год выпуска: 2015
Производство: "Тесей Продакшн"
Жанр: драма

Продолжительность: 00:45:00
Субтитры: нет
Режиссёр: Дмитрий Сорокин
В ролях:
Никита Зверев, Яна Шивкова (Николаева), Елена Ветрова, Андрей Олиференко, Анастасия Сорокина,
Данила Якушев, Игорь Кулачко, Владимир Румянцев, Евгений Кушпель, Олег Метелев
Описание:
Жизнь топ-менеджера Виктории — это непрерывная гонка за успехом. В ее мире нет места для семейных ценностей и душевной теплоты, и Викторию это устраивает. Она уверена, что все покупается и все продается, вопрос лишь в цене. Но однажды, потеряв все, она вынуждена вернуться в фамильную усадьбу, которую завещал ей дедушка-винодел. Там Виктория сталкивается с чуждым незнакомым ей миром, частью которого она когда-то была. Вместе с родной землей Виктория обретает любимое дело и находит любовь — своего друга детства. Вместе они вступают в борьбу за свою землю, на которую претендуют рейдеры…

Возраст: 16+
Качество: HDTV (1080i)
Формат: TS
Видео кодек: AVC
Аудио кодек: MP2

Видео: AVC, 1920 х 1080 (16:9), 25,000 кадр/сек, 7 864 Кбит/сек, 0.152 bit/pixel
Аудио: MP2, 48000 Hz, 192 Kbps, 2 канала
General
ID : 1 (0x1)
Complete name : D:\Раздачи\Истина в вине (1-2 серии из 2) HDTV (1080i)\Istina.v.vine.(2.seriya).2015.HDTV.1080i.ts
Format : MPEG-TS
File size : 5.11 GiB
Duration : 1h 26mn
Overall bit rate mode : Variable
Overall bit rate : 8 476 Kbps

Video
ID : 2911 (0xB5F)
Menu ID : 1009 (0x3F1)
Format : AVC
Format/Info : Advanced Video Codec
Format profile : [email protected]
Format settings, CABAC : Yes
Format settings, ReFrames : 4 frames
Codec ID : 27
Duration : 1h 26mn
Bit rate : 7 864 Kbps
Width : 1 920 pixels
Height : 1 080 pixels
Display aspect ratio : 16:9
Frame rate : 25.000 fps
Color space : YUV
Chroma subsampling : 4:2:0
Bit depth : 8 bits
Scan type : MBAFF
Scan type, store method : Interleaved fields
Scan order : Top Field First
Bits/(Pixel*Frame) : 0.152
Stream size : 4.74 GiB (93%)

Audio
ID : 2912 (0xB60)
Menu ID : 1009 (0x3F1)
Format : MPEG Audio
Format version : Version 1
Format profile : Layer 2
Codec ID : 3
Duration : 1h 26mn
Bit rate mode : Constant
Bit rate : 192 Kbps
Channel(s) : 2 channels
Sampling rate : 48.0 KHz
Compression mode : Lossy
Stream size : 119 MiB (2%)
Language : Russian




Раздаю до первых 5-ти скачавших, на раздачи не возвращаюсь...

   
Торрент: Зарегистрирован [21 мар 2016, 00:20] За каждые 2 ГБ. аплоада (сидирования) этого торрента начисляется бонус: 0.001 Скачать торрент
Скачать торрент
О MediaGet
[ Размер 53.23 КБ / Просмотров 97 ]

Статус:
 
Приватный: Нет (DHT включён)
Размер: 10.52 ГБ (11 297 206 512 байт)
   
Аватара пользователя

Администратор
Администратор
 
Раздал: 2.33 ПБ
Скачал: 1.02 ПБ
Ратио: 2.281
Сообщения: 3719
Зарегистрирован: 07 май 2010, 17:29
Medals: 1
Лучший релиз за месяц (1)
  • Личное сообщение
  • ICQ

Вернуться в Зарубежные фильмы (Rip's)

Кто сейчас на конференции

Зарегистрированные пользователи: нет зарегистрированных пользователей

Ресурс не предоставляет электронные версии произведений, а занимается лишь коллекционированием и каталогизацией ссылок, присылаемых и публикуемых на форуме нашими читателями. Если вы являетесь правообладателем какого-либо представленного материала и не желаете чтобы ссылка на него находилась в нашем каталоге, свяжитесь с нами и мы незамедлительно удалим её. Файлы для обмена на трекере предоставлены пользователями сайта, и администрация не несёт ответственности за их содержание. Просьба не заливать файлы, защищенные авторскими правами, а также файлы нелегального содержания!
cron