Пустынная бухта / Hollow Creek (Гусела Моро / Guisela Moro) [2016, США, Триллер, Криминал, Детектив, WEB-DLRip] DVO скачать торрент

Мировая классика кино, Rip, Рипы, Зарубежные фильмы

Модератор: Модераторы видео

  • Статистика раздачи
Размер: 1.39 ГБ   |  Зарегистрирован: 21 мар 2016, 00:22   |   .torrent скачан: 3 раз
Сидеров: 10  [ 0 байт/сек ]     Личеров: 0  [ 0 байт/сек ]  
Список файлов : Кто скачал : Раздают : Скачивают : Кто благодарил : История : Не раздающие : Запрашивали сидеров : Внешние трекеры 
  

Пустынная бухта / Hollow Creek (Гусела Моро / Guisela Moro) [2016, США, Триллер, Криминал, Детектив, WEB-DLRip] DVO

Сообщение Админ » 21 мар 2016, 00:22


Пустынная бухта
Hollow Creek

Страна: США
Жанр: Триллер, Криминал, Детектив
Год выпуска: 2016
Продолжительность: 01:56:27
Перевод: Профессиональный (двухголосый закадровый)
Cубтитры: нет
Оригинальная аудиодорожка: нет
Режиссер: Гусела Моро / Guisela Moro
В ролях: Стив Дарон, Гусела Моро, Берт Рейнолдс, Дэвид Осем, Тони Райхарт, Элин Дарне, Стив Альбертс, Демия Элифф, Шэрон Бло
Описание: Нью-Йоркский писатель Блейк Блэкман, в поисках вдохновения и душевного спокойствия со своей возлюбленной Анжеликой, убегает из шумного города, чтобы уединится в уютном горном домике. По прибытию, он узнает по местному телевидению, что в горах пропали несколько детей, плюс ко всему, его собака ведет себя очень странно. В итоге романтическая поездка, превращается в кошмар, после того, как исчезает Анжелика, а Блейк становится главным подозреваемым в её пропаже...

Качество видео: WEB-DLRip
Формат видео: AVI
Видео: 720x400 (16:9), 23.976 fps, XviD MPEG-4, [email protected] ~ 1314 Kbps, 0.190 bit/pixel
Аудио: 48 kHz, AC3 Dolby Digital, 2/0 (L,R) ch, ~384 kbps
General
Complete name : D:\Фильмы\Pustuinnaya.Buhta.avi
Format : AVI
Format/Info : Audio Video Interleave
File size : 1.39 GiB
Duration : 1h 56mn
Overall bit rate : 1 707 Kbps
Writing application : VirtualDubMod 1.5.10.2 (build 2542/release)
Writing library : VirtualDubMod build 2542/release
Video
ID : 0
Format : MPEG-4 Visual
Format profile : Advanced [email protected]
Format settings, BVOP : 2
Format settings, QPel : No
Format settings, GMC : No warppoints
Format settings, Matrix : Default (H.263)
Muxing mode : Packed bitstream
Codec ID : XVID
Codec ID/Hint : XviD
Duration : 1h 56mn
Bit rate : 1 314 Kbps
Width : 720 pixels
Height : 400 pixels
Display aspect ratio : 16:9
Frame rate : 23.976 (24000/1001) fps
Color space : YUV
Chroma subsampling : 4:2:0
Bit depth : 8 bits
Scan type : Progressive
Compression mode : Lossy
Bits/(Pixel*Frame) : 0.190
Stream size : 1.07 GiB (77%)
Writing library : XviD 66

Audio
ID : 1
Format : AC-3
Format/Info : Audio Coding 3
Mode extension : CM (complete main)
Format settings, Endianness : Big
Codec ID : 2000
Duration : 1h 56mn
Bit rate mode : Constant
Bit rate : 384 Kbps
Channel(s) : 2 channels
Channel positions : Front: L R
Sampling rate : 48.0 KHz
Frame rate : 31.250 fps (1536 spf)
Compression mode : Lossy
Stream size : 320 MiB (22%)
Alignment : Split accross interleaves
Interleave, duration : 42 ms (1.00 video frame)
Interleave, preload duratio : 500 ms


   
Торрент: Зарегистрирован [21 мар 2016, 00:22] Скачать торрент
Скачать торрент
О MediaGet
[ Размер 14.45 КБ / Просмотров 110 ]

Статус:
 
Приватный: Нет (DHT включён)
Размер: 1.39 ГБ (1 491 240 960 байт)
   
Аватара пользователя

Администратор
Администратор
 
Раздал: 2.33 ПБ
Скачал: 1.02 ПБ
Ратио: 2.281
Сообщения: 3723
Зарегистрирован: 07 май 2010, 17:29
Medals: 1
Лучший релиз за месяц (1)
  • Личное сообщение
  • ICQ

Вернуться в Зарубежные фильмы (Rip's)

Кто сейчас на конференции

Зарегистрированные пользователи: bigcatwar

Ресурс не предоставляет электронные версии произведений, а занимается лишь коллекционированием и каталогизацией ссылок, присылаемых и публикуемых на форуме нашими читателями. Если вы являетесь правообладателем какого-либо представленного материала и не желаете чтобы ссылка на него находилась в нашем каталоге, свяжитесь с нами и мы незамедлительно удалим её. Файлы для обмена на трекере предоставлены пользователями сайта, и администрация не несёт ответственности за их содержание. Просьба не заливать файлы, защищенные авторскими правами, а также файлы нелегального содержания!
cron