Бруклин / Brooklyn (Джон Краули / John Crowley) [2015, Ирландия, Великобритания, Канада, Драма, Мелодрама, BDRip] MVO скачать торрент

Мировая классика кино, Rip, Рипы, Зарубежные фильмы

Модератор: Модераторы видео

  • Статистика раздачи
Размер: 1.46 ГБ   |  Зарегистрирован: 20 мар 2016, 01:45   |   .torrent скачан: 6 раз
Сидеров: 0  [ 0 байт/сек ]     Личеров: 0  [ 0 байт/сек ]  
Список файлов : Кто скачал : Раздают : Скачивают : Кто благодарил : История : Не раздающие : Запрашивали сидеров : Внешние трекеры 
  

Бруклин / Brooklyn (Джон Краули / John Crowley) [2015, Ирландия, Великобритания, Канада, Драма, Мелодрама, BDRip] MVO

Сообщение Админ » 20 мар 2016, 01:45

Бруклин / Brooklyn

Страна: Ирландия, Великобритания, Канада
Жанр: Драма, Мелодрама
Год выпуска: 2015
Продолжительность: 01:51:58.806

Перевод: Профессиональный (многоголосый закадровый)
Cубтитры: нет
Режиссер: Джон Краули / John Crowley

В ролях: Сирша Ронан, Эмори Коэн, Донал Глисон, Джим Бродбент, Джули Уолтерс, Брид Бреннан, Джейн Бреннан, Фиона Глэскотт, Джессика Паре, Эйлин О Хиггинс

Описание: История Эллис Лэйси, которая неохотно покидает свою родную ирландскую деревню и отправляется на поиски работы в Америку. В итоге она поселяется в Бруклине, постепенно излечивается от ностальгии и начинает наслаждаться воздухом свободы. Ко всему прочему Эллис влюбляется, но трагические новости с родины заставляют ее вернуться в Ирландию, где она встречает другого мужчину и в результате вынуждена делать нелегкий выбор.

Сэмпл: http://multi-up.com/1092195

Качество видео: BDRip Blu-Ray (1080p)|kinozal
Формат видео: AVI

Видео: 720x384 (1.88:1), 23.976 fps, XviD build 73 ~1670 kbps avg, 0.25 bit/pixel
Аудио: 48 kHz, AC3 Dolby Digital, 2/0 (L,R) ch, ~192 kbps
Формат : AVI
Формат/Информация : Audio Video Interleave
Размер файла : 1,46 Гбайт
Продолжительность : 1 ч. 51 м.
Общий поток : 1872 Кбит/сек
Программа кодирования : VirtualDubMod 1.5.10.3 (build 2550/release)
Библиотека кодирования : VirtualDubMod build 2550/release

Видео
Идентификатор : 0
Формат : MPEG-4 Visual
Профиль формата : Advanced [email protected]
Параметр BVOP формата : 1
Параметр QPel формата : Нет
Параметр GMC формата : Без точки перехода
Параметр матрицы формата : Выборочная
Идентификатор кодека : XVID
Идентификатор кодека/Подсказка : XviD
Продолжительность : 1 ч. 51 м.
Битрейт : 1671 Кбит/сек
Ширина : 720 пикселей
Высота : 384 пикселя
Соотношение сторон : 1,85:1
Частота кадров : 23,976 (23976/1000) кадра/сек
Цветовое пространство : YUV
Субдискретизация насыщенности : 4:2:0
Битовая глубина : 8 бит
Тип развёртки : Прогрессивная
Метод сжатия : С потерями
Бит/(Пиксели*Кадры) : 0.252
Размер потока : 1,31 Гбайт (89%)
Библиотека кодирования : XviD 73

Аудио
Идентификатор : 1
Формат : AC-3
Формат/Информация : Audio Coding 3
Расширение режима : CM (complete main)
Параметр Endianness формата : Big
Идентификатор кодека : 2000
Продолжительность : 1 ч. 51 м.
Вид битрейта : Постоянный
Битрейт : 192 Кбит/сек
Каналы : 2 канала
Расположение каналов : Front: L R
Частота : 48,0 КГц
Частота кадров : 31,250 кадров/сек (1536 spf)
Метод сжатия : С потерями
Размер потока : 154 Мбайт (10%)
Выравнивание : Разделение по промежуткам
Продолжительность промежутка : 42 мс. (1,00 видеокадр)
Время предзагрузки промежутка : 500 мс.
   
Торрент: Зарегистрирован [20 мар 2016, 01:45] Скачать торрент
Скачать торрент
О MediaGet
[ Размер 15.08 КБ / Просмотров 152 ]

Статус:
 
Приватный: Нет (DHT включён)
Размер: 1.46 ГБ (1 572 534 272 байт)
   
Аватара пользователя

Администратор
Администратор
 
Раздал: 2.33 ПБ
Скачал: 1.02 ПБ
Ратио: 2.281
Сообщения: 3723
Зарегистрирован: 07 май 2010, 17:29
Medals: 1
Лучший релиз за месяц (1)
  • Личное сообщение
  • ICQ

Вернуться в Зарубежные фильмы (Rip's)

Кто сейчас на конференции

Зарегистрированные пользователи: bigcatwar

Ресурс не предоставляет электронные версии произведений, а занимается лишь коллекционированием и каталогизацией ссылок, присылаемых и публикуемых на форуме нашими читателями. Если вы являетесь правообладателем какого-либо представленного материала и не желаете чтобы ссылка на него находилась в нашем каталоге, свяжитесь с нами и мы незамедлительно удалим её. Файлы для обмена на трекере предоставлены пользователями сайта, и администрация не несёт ответственности за их содержание. Просьба не заливать файлы, защищенные авторскими правами, а также файлы нелегального содержания!
cron