Мой король / Mon roi (2015) WEB-DL [H.264/720p-LQ] [Line] скачать торрент

Мировая классика кино, Rip, Рипы, Зарубежные фильмы

Модератор: Модераторы видео

  • Статистика раздачи
Размер: 4.19 ГБ   |  Зарегистрирован: 25 фев 2016, 06:24   |   .torrent скачан: 14 раз
Сидеров: 332  [ 0 байт/сек ]     Личеров: 31  [ 0 байт/сек ]  
Список файлов : Кто скачал : Раздают : Скачивают : Кто благодарил : История : Не раздающие : Запрашивали сидеров : Внешние трекеры 
  

Мой король / Mon roi (2015) WEB-DL [H.264/720p-LQ] [Line]

Сообщение Админ » 25 фев 2016, 06:24

Мой король / Mon roi (2015) WEB-DL [H.264/720p-LQ]

Производство: Франция, 120 Films, Arches Films, Canal+
Жанр: Драма, Мелодрама

Режиссер: Майвенн Ле Беско
Продюсер: Ален Аттал, Ксавьер Амблар, Этьен Комар
Актеры: Венсан Кассель, Эмманюэль Берко, Луи Гаррель, Изильд Ле Беско, Кристель Сэйнт Луис Огустен, Патрик Рейналь, Ян Говен, Поль Ами, Джамел Барек, Слим Эль Хедли

Описание:
Тони знакомится на вечеринке с Джорджио, и легкое увлечение перерастает в настоящую страсть. Десять лет всепоглощающей любви, полной безоглядного счастья и ослепляющей ревности. Оказавшись наедине с собой, Тони возвращается в мыслях к отношениям с Джоржио. Кто был этот человек? Кем она стала рядом с ним? Тони предстоит долгая работа, которая излечит душу и смягчит сердце.



Возраст: 18+
Дата мировой премьеры: 17 мая 2015
Дата премьеры в России: 18 февраля 2016, «A-One Films»

Продолжительность: 02:05:08
Качество видео: WEB-DL
Перевод: Многоголосый закадровый, профессиональный (Чистый звук)
Вид субтитров: Отсутствуют
Реклама: Присутствуют голосовые вставки рекламы!

Видео: AVC/H.264, 1280x532 (2.40:1), 3927 kb/s
Аудио »1: 48 kHz, AC3 Dolby Digital, 2/0 (L,R) ch, ~384 kbps (Русский/Официальный)
Аудио »2: 48 kHz, AC3 Dolby Digital, 3/2 (L,C,R,l,r) + LFE ch, ~384 kbps (Французский/Оригинал)
Семпл: Скачать
Каннский кинофестиваль, 2015 год

Победитель (1):
    Лучшая женская роль ( Эмманюэль Берко )
Номинации (1):
    Золотая пальмовая ветвь
Код: Выделить всё
Общее
Уникальный идентификатор                 : 179536111619461683516041653113986337328 (0x871165B883071099BA8DF5315661CA30)
Полное имя                               : D:\Релизы\Мой.король.2015.WEB-DL.[720p].nnm-club.mkv
Формат                                   : Matroska
Версия формата                           : Version 2
Размер файла                             : 4,19 Гбайт
Продолжительность                        : 2 ч. 5 м.
Общий поток                              : 4790 Кбит/сек
Название фильма                          : Мой.король.2015.WEB-DL.[720p].nnm-club
Дата кодирования                         : UTC 2016-02-23 18:34:03
Программа кодирования                    : mkvmerge v8.3.0 ('Over the Horizon') 64bit
Библиотека кодирования                   : libebml v1.3.1 + libmatroska v1.4.2

Видео
Идентификатор                            : 1
Формат                                   : AVC
Формат/Информация                        : Advanced Video Codec
Профиль формата                          :
Параметр CABAC формата                   : Нет
Параметр ReFrames формата                : 2 кадра
Идентификатор кодека                     : V_MPEG4/ISO/AVC
Продолжительность                        : 2 ч. 5 м.
Битрейт                                  : 3927 Кбит/сек
Ширина                                   : 1280 пикселей
Высота                                   : 532 пикселя
Соотношение сторон                       : 2,40:1
Режим частоты кадров                     : Постоянный
Частота кадров                           : 24,000 кадра/сек
Цветовое пространство                    : YUV
Субдискретизация насыщенности            : 4:2:0
Битовая глубина                          : 8 бит
Тип развёртки                            : Прогрессивная
Бит/(Пиксели*Кадры)                      : 0.240
Размер потока                            : 3,43 Гбайт (82%)
Заголовок                                : Мой.король.2015.WEB-DL.[720p].nnm-club
Язык                                     : English
Default                                  : Да
Forced                                   : Нет
Цветовой диапазон                        : Limited
Основные цвета                           : BT.709
Характеристики трансфера                 : BT.709
Коэффициенты матрицы                     : BT.709

Аудио #1
Идентификатор                            : 2
Формат                                   : AC-3
Формат/Информация                        : Audio Coding 3
Расширение режима                        : CM (complete main)
Параметр Endianness формата              : Big
Идентификатор кодека                     : A_AC3
Продолжительность                        : 2 ч. 5 м.
Вид битрейта                             : Постоянный
Битрейт                                  : 384 Кбит/сек
Каналы                                   : 2 канала
Расположение каналов                     : Front: L R
Частота                                  : 48,0 КГц
Метод сжатия                             : С потерями
Размер потока                            : 344 Мбайт (8%)
Заголовок                                : Line
Язык                                     : Russian
Default                                  : Да
Forced                                   : Нет

Аудио #2
Идентификатор                            : 3
Формат                                   : AC-3
Формат/Информация                        : Audio Coding 3
Расширение режима                        : CM (complete main)
Параметр Endianness формата              : Big
Идентификатор кодека                     : A_AC3
Продолжительность                        : 2 ч. 5 м.
Вид битрейта                             : Постоянный
Битрейт                                  : 384 Кбит/сек
Каналы                                   : 6 каналов
Расположение каналов                     : Front: L C R, Side: L R, LFE
Частота                                  : 48,0 КГц
Метод сжатия                             : С потерями
Размер потока                            : 344 Мбайт (8%)
Заголовок                                : Original
Язык                                     : French
Default                                  : Нет
Forced                                   : Нет

Меню
00:00:00.000                             : en:Chapitre 1
00:10:08.000                             : en:Chapitre 2
00:20:21.000                             : en:Chapitre 3
00:31:03.000                             : en:Chapitre 4
00:40:09.000                             : en:Chapitre 5
00:50:58.000                             : en:Chapitre 6
01:01:21.000                             : en:Chapitre 7
01:11:31.000                             : en:Chapitre 8
01:20:53.000                             : en:Chapitre 9
01:30:18.000                             : en:Chapitre 10
01:40:09.000                             : en:Chapitre 11
01:50:16.000                             : en:Chapitre 12
01:58:32.000                             : en:Chapitre 13

Скриншоты:

Время раздачи: 24/7 (до появления первых 3-5 скачавших)
   
Торрент: Зарегистрирован [25 фев 2016, 06:24] Скачать торрент
Скачать торрент
О MediaGet
[ Размер 21.66 КБ / Просмотров 89 ]

Статус:
 
Приватный: Нет (DHT включён)
Размер: 4.19 ГБ (4 495 967 467 байт)
   
Аватара пользователя

Администратор
Администратор
 
Раздал: 2.33 ПБ
Скачал: 1.02 ПБ
Ратио: 2.281
Сообщения: 3723
Зарегистрирован: 07 май 2010, 17:29
Medals: 1
Лучший релиз за месяц (1)
  • Личное сообщение
  • ICQ

  • Похожие торренты
    Ответы
    Просмотры
    Последнее сообщение

Вернуться в Зарубежные фильмы (Rip's)

Кто сейчас на конференции

Зарегистрированные пользователи: bigcatwar, ванюшка

Ресурс не предоставляет электронные версии произведений, а занимается лишь коллекционированием и каталогизацией ссылок, присылаемых и публикуемых на форуме нашими читателями. Если вы являетесь правообладателем какого-либо представленного материала и не желаете чтобы ссылка на него находилась в нашем каталоге, свяжитесь с нами и мы незамедлительно удалим её. Файлы для обмена на трекере предоставлены пользователями сайта, и администрация не несёт ответственности за их содержание. Просьба не заливать файлы, защищенные авторскими правами, а также файлы нелегального содержания!
cron