Острие стрелы / Arrowhead (2016) BDRip [VO] скачать торрент

Мировая классика кино, Rip, Рипы, Зарубежные фильмы

Модератор: Модераторы видео

  • Статистика раздачи
Размер: 1.46 ГБ   |  Зарегистрирован: 25 фев 2016, 06:23   |   .torrent скачан: 20 раз
Сидеров: 4026  [ 0 байт/сек ]     Личеров: 518  [ 0 байт/сек ]  
Список файлов : Кто скачал : Раздают : Скачивают : Кто благодарил : История : Не раздающие : Запрашивали сидеров : Внешние трекеры 
  

Острие стрелы / Arrowhead (2016) BDRip [VO]

Сообщение Админ » 25 фев 2016, 06:23

Острие стрелы / Arrowhead (2016) BDRip

Производство: Австралия
Жанр: Фантастика, боевик, Приключения

Режиссер: Джесси О’Брайэн
Актеры: Кристофер Кирби, Дэн Мор, Шон Микаллеф, Алейша Грот, Джек Уайлд, Марк Редпаф, Акира Брэдли, Адам Тухи

Описание:
Далёкое будущее. На Земле царит диктатура группировки под предводительством Тобиаса Хатча и в планах у него колонизировать Вселенную. Опальному летчику Kею Кортленду в обмен на свободу предложено возглавить захватническую межпланетную операцию на корабле "Arrowhead". Кей вынужден согласиться, но терпит крушение на неизвестной планете, которая лишь на первый взгляд кажется необитаемой...


Дата мировой премьеры: 26 января 2016

Качество видео: BDRip
Перевод: Одноголосый закадровый, любительский
Озвучка / Автор перевода: Вадим Назаров
Субтитры: отсутствуют

Видео: Xvid, 720x400, ~1661 Kbps
Аудио: AC3, 6 ch, 448 Kbps, CBR
Код:
Код: Выделить всё
Общее
Полное имя                               : D:\Релизы\Arrowhead.2016.BDRip.avi
Формат                                   : AVI
Формат/Информация                        : Audio Video Interleave
Размер файла                             : 1,46 Гбайт
Продолжительность                        : 1 ч. 38 м.
Общий поток                              : 2118 Кбит/сек
Программа кодирования                    : VirtualDubMod 1.5.10.2 (build 2540/release)
Библиотека кодирования                   : VirtualDubMod build 2540/release

Видео
Идентификатор                            : 0
Формат                                   : MPEG-4 Visual
Профиль формата                          : Advanced [email protected]
Параметр BVOP формата                    : 1
Параметр QPel формата                    : Нет
Параметр GMC формата                     : Без точки перехода
Параметр матрицы формата                 : Default (MPEG)
Идентификатор кодека                     : XVID
Идентификатор кодека/Подсказка           : XviD
Продолжительность                        : 1 ч. 38 м.
Битрейт                                  : 1661 Кбит/сек
Ширина                                   : 720 пикселей
Высота                                   : 400 пикселей
Соотношение сторон                       : 16:9
Частота кадров                           : 24,000 кадра/сек
Цветовое пространство                    : YUV
Субдискретизация насыщенности            : 4:2:0
Битовая глубина                          : 8 бит
Тип развёртки                            : Прогрессивная
Метод сжатия                             : С потерями
Бит/(Пиксели*Кадры)                      : 0.240
Размер потока                            : 1,15 Гбайт (78%)
Библиотека кодирования                   : XviD 67

Аудио
Идентификатор                            : 1
Формат                                   : AC-3
Формат/Информация                        : Audio Coding 3
Расширение режима                        : CM (complete main)
Параметр Endianness формата              : Big
Идентификатор кодека                     : 2000
Продолжительность                        : 1 ч. 38 м.
Вид битрейта                             : Постоянный
Битрейт                                  : 448 Кбит/сек
Каналы                                   : 6 каналов
Расположение каналов                     : Front: L C R, Side: L R, LFE
Частота                                  : 48,0 КГц
Частота кадров                           : 31,250 кадров/сек (1536 spf)
Метод сжатия                             : С потерями
Размер потока                            : 317 Мбайт (21%)
Выравнивание                             : Разделение по промежуткам
Продолжительность промежутка             : 42  мс. (1,00 видеокадр)
Время предзагрузки промежутка            : 500  мс.


Скриншоты:



Время раздачи: 24/7 (до появления первых 3-5 скачавших)
   
Торрент: Зарегистрирован [25 фев 2016, 06:23] Скачать торрент
Скачать торрент
О MediaGet
[ Размер 15.43 КБ / Просмотров 125 ]

Статус:
 
Приватный: Нет (DHT включён)
Размер: 1.46 ГБ (1 572 276 224 байт)
   
Аватара пользователя

Администратор
Администратор
 
Раздал: 2.33 ПБ
Скачал: 1.02 ПБ
Ратио: 2.281
Сообщения: 3723
Зарегистрирован: 07 май 2010, 17:29
Medals: 1
Лучший релиз за месяц (1)
  • Личное сообщение
  • ICQ

  • Похожие торренты
    Ответы
    Просмотры
    Последнее сообщение

Вернуться в Зарубежные фильмы (Rip's)

Кто сейчас на конференции

Зарегистрированные пользователи: bigcatwar, ванюшка

Ресурс не предоставляет электронные версии произведений, а занимается лишь коллекционированием и каталогизацией ссылок, присылаемых и публикуемых на форуме нашими читателями. Если вы являетесь правообладателем какого-либо представленного материала и не желаете чтобы ссылка на него находилась в нашем каталоге, свяжитесь с нами и мы незамедлительно удалим её. Файлы для обмена на трекере предоставлены пользователями сайта, и администрация не несёт ответственности за их содержание. Просьба не заливать файлы, защищенные авторскими правами, а также файлы нелегального содержания!
cron