В сердце моря / In the Heart of the Sea (2015) BDRip [H.264/1080p] [Line] скачать торрент

Мировая классика кино, Rip, Рипы, Зарубежные фильмы

Модератор: Модераторы видео

  • Статистика раздачи
Размер: 14.91 ГБ   |  Зарегистрирован: 25 фев 2016, 06:22   |   .torrent скачан: 19 раз
Сидеров: 555  [ 0 байт/сек ]     Личеров: 36  [ 0 байт/сек ]  
Список файлов : Кто скачал : Раздают : Скачивают : Кто благодарил : История : Не раздающие : Запрашивали сидеров : Внешние трекеры 
  

В сердце моря / In the Heart of the Sea (2015) BDRip [H.264/1080p] [Line]

Сообщение Админ » 25 фев 2016, 06:22

В сердце моря / In the Heart of the Sea (2015) BDRip

Производство: США, Австралия, Испания, Великобритания, Канада / Cott Productions, Enelmar Productions, Imagine Entertainment
Жанр: Приключения, Драма, Биография

Режиссер: Рон Ховард
Продюсер: Брайан Грейзер, Рон Ховард, Джо Рот
Актеры: Крис Хемсворт, Киллиан Мёрфи, Том Холлэнд, Бен Уишоу, Мишель Фэйрли, Шарлотта Райли, Брендан Глисон, Пол Андерсон, Бенджамин Уокер, Хорди Молья

Описание:
В 1819 году американский корабль «Эссекс» с командой из двух десятков человек на борту отправился из порта в штате Массачусетс на китобойный промысел. Осенью 1820-го успешная на протяжении полутора лет охота была прервана атакой гигантского кашалота на судно, в результате чего морякам пришлось пересесть в шлюпки. В течение трех с лишним месяцев они боролись за выживание посреди океана…


Дата мировой премьеры: 2 декабря 2015
Дата премьеры в России: 3 декабря 2015, «Каро-Премьер»
Рейтинг PG-13 — Детям до 13 лет просмотр не желателен

Релиз от: lexxblack
Продолжительность: 02:02:06
Качество видео: BDRip
Перевод: Дублированный (чистый звук)
Язык субтитров: Русский, Английский
Вид субтитров: Вшитые отключаемые (forced, full)

Видео: AVC/H.264, 1920x1080, ~16.4 mbps
Аудио: AC3, 2 ch, 192 kbps, CBR | Русский (DUB)
Аудио: AC3, 6 ch, 640 kbps, CBR | Английский
Семпл: Скачать
Код:
Код: Выделить всё
Формат                                   : Matroska
Версия формата                           : Version 2
Размер файла                             : 14,9 Гбайт
Продолжительность                        : 2 ч. 1 м.
Общий поток                              : 17,5 Мбит/сек
Название фильма                          : In The Heart Of The Sea (2015) - by lexxblack
Дата кодирования                         : UTC 2016-02-24 07:56:41
Программа кодирования                    : mkvmerge v8.3.0 ('Over the Horizon') 32bit
Библиотека кодирования                   : libebml v1.3.1 + libmatroska v1.4.2
Attachements                             : cover.jpg

Видео
Идентификатор                            : 1
Формат                                   : AVC
Формат/Информация                        : Advanced Video Codec
Профиль формата                          :
Параметр CABAC формата                   : Да
Параметр ReFrames формата                : 4 кадра
Идентификатор кодека                     : V_MPEG4/ISO/AVC
Продолжительность                        : 2 ч. 1 м.
Битрейт                                  : 16,4 Мбит/сек
Ширина                                   : 1920 пикселей
Высота                                   : 1080 пикселей
Соотношение сторон                       : 16:9
Режим частоты кадров                     : Постоянный
Частота кадров                           : 23,976 кадра/сек
Цветовое пространство                    : YUV
Субдискретизация насыщенности            : 4:2:0
Битовая глубина                          : 8 бит
Тип развёртки                            : Прогрессивная
Бит/(Пиксели*Кадры)                      : 0.329
Размер потока                            : 13,9 Гбайт (93%)
Заголовок                                : In The Heart Of The Sea (2015) - EPiC
Библиотека кодирования                   : x264 core 142 r2431+42 c69a006 tMod [[email protected] X86_64]
Настройки программы                      : cabac=1 / ref=4 / deblock=1:-3:-3 / analyse=0x3:0x133 / me=umh / subme=11 / psy=1 / fade_compensate=0.00 / psy_rd=0.90:0.00 / mixed_ref=1 / me_range=32 / chroma_me=1 / trellis=2 / 8x8dct=1 / cqm=0 / deadzone=21,11 / fast_pskip=0 / chroma_qp_offset=-2 / threads=12 / lookahead_threads=2 / sliced_threads=0 / nr=0 / decimate=0 / interlaced=0 / bluray_compat=0 / constrained_intra=0 / fgo=0 / bframes=8 / b_pyramid=2 / b_adapt=2 / b_bias=0 / direct=3 / weightb=1 / open_gop=0 / weightp=2 / keyint=240 / keyint_min=23 / scenecut=40 / intra_refresh=0 / rc_lookahead=60 / rc=crf / mbtree=0 / crf=16.8000 / qcomp=0.60 / qpmin=0:0:0 / qpmax=69:69:69 / qpstep=4 / vbv_maxrate=40000 / vbv_bufsize=30000 / crf_max=0.0 / nal_hrd=none / filler=0 / ip_ratio=1.40 / pb_ratio=1.30 / aq=1:0.90 / aq-sensitivity=10.00 / aq-factor=1.00:1.00:1.00 / aq2=0 / aq3=0
Язык                                     : English
Default                                  : Да
Forced                                   : Да

Аудио #1
Идентификатор                            : 2
Формат                                   : AC-3
Формат/Информация                        : Audio Coding 3
Расширение режима                        : CM (complete main)
Параметр Endianness формата              : Big
Идентификатор кодека                     : A_AC3
Продолжительность                        : 2 ч. 1 м.
Вид битрейта                             : Постоянный
Битрейт                                  : 192 Кбит/сек
Каналы                                   : 2 канала
Расположение каналов                     : Front: L R
Частота                                  : 48,0 КГц
Метод сжатия                             : С потерями
Размер потока                            : 167 Мбайт (1%)
Заголовок                                : AC3 2.0 @ 192 kbps - Dub (Line)
Язык                                     : Russian
Default                                  : Да
Forced                                   : Да

Аудио #2
Идентификатор                            : 3
Формат                                   : AC-3
Формат/Информация                        : Audio Coding 3
Расширение режима                        : CM (complete main)
Параметр Endianness формата              : Big
Идентификатор кодека                     : A_AC3
Продолжительность                        : 2 ч. 1 м.
Вид битрейта                             : Постоянный
Битрейт                                  : 640 Кбит/сек
Каналы                                   : 6 каналов
Расположение каналов                     : Front: L C R, Side: L R, LFE
Частота                                  : 48,0 КГц
Метод сжатия                             : С потерями
Размер потока                            : 557 Мбайт (4%)
Заголовок                                : AC3 5.1 @ 640 kbps - Original
Язык                                     : English
Default                                  : Нет
Forced                                   : Нет

Текст #1
Идентификатор                            : 4
Формат                                   : UTF-8
Идентификатор кодека                     : S_TEXT/UTF8
Идентификатор кодека/Информация          : UTF-8 Plain Text
Заголовок                                : Forced
Язык                                     : Russian
Default                                  : Да
Forced                                   : Да

Текст #2
Идентификатор                            : 5
Формат                                   : UTF-8
Идентификатор кодека                     : S_TEXT/UTF8
Идентификатор кодека/Информация          : UTF-8 Plain Text
Заголовок                                : Full
Язык                                     : Russian
Default                                  : Нет
Forced                                   : Нет

Текст #3
Идентификатор                            : 6
Формат                                   : UTF-8
Идентификатор кодека                     : S_TEXT/UTF8
Идентификатор кодека/Информация          : UTF-8 Plain Text
Заголовок                                : Full
Язык                                     : English
Default                                  : Нет
Forced                                   : Нет

Меню
00:00:00.000                             : en:Chapter 01
00:12:07.518                             : en:Chapter 02
00:21:19.736                             : en:Chapter 03
00:33:31.968                             : en:Chapter 04
00:42:37.012                             : en:Chapter 05
00:51:32.714                             : en:Chapter 06
01:06:45.835                             : en:Chapter 07
01:13:14.014                             : en:Chapter 08
01:23:23.289                             : en:Chapter 09
01:33:47.872                             : en:Chapter 10
01:43:22.029                             : en:Chapter 11
01:53:00.774                             : en:Chapter 12
02:01:42.920                             : en:Chapter 13

Скриншоты:

   
Торрент: Зарегистрирован [25 фев 2016, 06:22] За каждые 2 ГБ. аплоада (сидирования) этого торрента начисляется бонус: 0.001 Скачать торрент
Скачать торрент
О MediaGet
[ Размер 38.02 КБ / Просмотров 135 ]

Статус:
 
Приватный: Нет (DHT включён)
Размер: 14.91 ГБ (16 011 837 143 байт)
   
Аватара пользователя

Администратор
Администратор
 
Раздал: 2.33 ПБ
Скачал: 1.02 ПБ
Ратио: 2.281
Сообщения: 3719
Зарегистрирован: 07 май 2010, 17:29
Medals: 1
Лучший релиз за месяц (1)
  • Личное сообщение
  • ICQ

Вернуться в Зарубежные фильмы (Rip's)

Кто сейчас на конференции

Зарегистрированные пользователи: нет зарегистрированных пользователей

Ресурс не предоставляет электронные версии произведений, а занимается лишь коллекционированием и каталогизацией ссылок, присылаемых и публикуемых на форуме нашими читателями. Если вы являетесь правообладателем какого-либо представленного материала и не желаете чтобы ссылка на него находилась в нашем каталоге, свяжитесь с нами и мы незамедлительно удалим её. Файлы для обмена на трекере предоставлены пользователями сайта, и администрация не несёт ответственности за их содержание. Просьба не заливать файлы, защищенные авторскими правами, а также файлы нелегального содержания!
cron