В сердце моря / In the Heart of the Sea (2015) HDRip [H.264] [Line] скачать торрент

Мировая классика кино, Rip, Рипы, Зарубежные фильмы

Модератор: Модераторы видео

  • Статистика раздачи
Размер: 2.01 ГБ   |  Зарегистрирован: 25 фев 2016, 06:22   |   .torrent скачан: 22 раз
Сидеров: 354  [ 0 байт/сек ]     Личеров: 13  [ 0 байт/сек ]  
Список файлов : Кто скачал : Раздают : Скачивают : Кто благодарил : История : Не раздающие : Запрашивали сидеров : Внешние трекеры 
  

В сердце моря / In the Heart of the Sea (2015) HDRip [H.264] [Line]

Сообщение Админ » 25 фев 2016, 06:22

В сердце моря / In the Heart of the Sea (2015) HDRip

Производство: США, Австралия, Испания, Великобритания, Канада, Cott Productions, Enelmar Productions, Imagine Entertainment
Жанр: Биография, Приключения, Драма

Режиссер: Рон Ховард
Продюсер: Брайан Грейзер, Рон Ховард, Джо Рот
Актеры: Крис Хемсворт, Киллиан Мёрфи, Том Холлэнд, Бен Уишоу, Мишель Фэйрли, Шарлотта Райли, Брендан Глисон, Пол Андерсон, Бенджамин Уокер, Хорди Молья

Описание:
В 1819 году американский корабль «Эссекс» с командой из двух десятков человек на борту отправился из порта в штате Массачусетс на китобойный промысел. Осенью 1820-го успешная на протяжении полутора лет охота была прервана атакой гигантского кашалота на судно, в результате чего морякам пришлось пересесть в шлюпки. В течение трех с лишним месяцев они боролись за выживание посреди океана…



Рейтинг MPAA: PG-13
Дата мировой премьеры: 2 декабря 2015
Дата премьеры в России: 3 декабря 2015, «Каро-Премьер»

Продолжительность: 02:01:43
Качество видео: HDRip
Перевод: Дублированный (Чистый звук)
Субтитры: Вшитые отключаемые
Язык субтитров: Русский (Forced), Английский (Full, SDH)

Видео: AVC/H.264, 1024x576, 1800 kbps, 23.976 fps
Аудио »1: 48 kHz, AC3 Dolby Digital, 2/0 (L,R) ch, ~192 kbps (Русский/Официальный)
Аудио »2: 48 kHz, AC3 Dolby Digital, 3/2 (L,C,R,l,r) + LFE ch, ~384 kbps (Английский)
Семпл: Скачать
Код: Выделить всё
Общее
Уникальный идентификатор                 : 178768417737660228633038459253801464724 (0x867D8B7D769D5365B451EE9D39EDB394)
Полное имя                               : D:\Релизы\В.сердце.моря.2015.HDRip.nnm-club.mkv
Формат                                   : Matroska
Версия формата                           : Version 2
Размер файла                             : 2,01 Гбайт
Продолжительность                        : 2 ч. 1 м.
Общий поток                              : 2368 Кбит/сек
Название фильма                          : В.сердце.моря.2015.HDRip.nnm-club
Дата кодирования                         : UTC 2016-02-24 17:39:35
Программа кодирования                    : mkvmerge v8.3.0 ('Over the Horizon') 64bit
Библиотека кодирования                   : libebml v1.3.1 + libmatroska v1.4.2

Видео
Идентификатор                            : 1
Формат                                   : AVC
Формат/Информация                        : Advanced Video Codec
Профиль формата                          :
Параметр CABAC формата                   : Да
Параметр ReFrames формата                : 10 кадров
Идентификатор кодека                     : V_MPEG4/ISO/AVC
Продолжительность                        : 2 ч. 1 м.
Битрейт                                  : 1800 Кбит/сек
Ширина                                   : 1024 пикселя
Высота                                   : 576 пикселей
Соотношение сторон                       : 16:9
Режим частоты кадров                     : Постоянный
Частота кадров                           : 23,976 кадра/сек
Стандарт вещания                         : Component
Цветовое пространство                    : YUV
Субдискретизация насыщенности            : 4:2:0
Битовая глубина                          : 8 бит
Тип развёртки                            : Прогрессивная
Бит/(Пиксели*Кадры)                      : 0.127
Размер потока                            : 1,48 Гбайт (74%)
Заголовок                                : В.сердце.моря.2015.HDRip.nnm-club
Библиотека кодирования                   : x264 core 144 r2525
Настройки программы                      : cabac=1 / ref=10 / deblock=1:-3:-3 / analyse=0x3:0x112 / me=umh / subme=9 / psy=1 / psy_rd=1.00:1.00 / mixed_ref=0 / me_range=16 / chroma_me=1 / trellis=1 / 8x8dct=1 / cqm=0 / deadzone=21,11 / fast_pskip=1 / chroma_qp_offset=-4 / threads=6 / lookahead_threads=1 / sliced_threads=0 / nr=0 / decimate=1 / interlaced=0 / bluray_compat=0 / constrained_intra=0 / bframes=10 / b_pyramid=2 / b_adapt=2 / b_bias=6 / direct=3 / weightb=0 / open_gop=0 / weightp=1 / keyint=239 / keyint_min=23 / scenecut=49 / intra_refresh=0 / rc_lookahead=40 / rc=2pass / mbtree=1 / bitrate=1800 / ratetol=1.0 / qcomp=0.80 / qpmin=4 / qpmax=69 / qpstep=10 / cplxblur=20.0 / qblur=0.5 / vbv_maxrate=4200 / vbv_bufsize=3500 / nal_hrd=none / filler=0 / ip_ratio=1.00 / aq=3:1.00
Default                                  : Да
Forced                                   : Нет
Цветовой диапазон                        : Limited

Аудио #1
Идентификатор                            : 2
Формат                                   : AC-3
Формат/Информация                        : Audio Coding 3
Расширение режима                        : CM (complete main)
Параметр Endianness формата              : Big
Идентификатор кодека                     : A_AC3
Продолжительность                        : 2 ч. 1 м.
Вид битрейта                             : Постоянный
Битрейт                                  : 192 Кбит/сек
Каналы                                   : 2 канала
Расположение каналов                     : Front: L R
Частота                                  : 48,0 КГц
Метод сжатия                             : С потерями
Задержка видео                           : -83 мс.
Размер потока                            : 167 Мбайт (8%)
Заголовок                                : Line
Язык                                     : Russian
Default                                  : Да
Forced                                   : Нет

Аудио #2
Идентификатор                            : 3
Формат                                   : AC-3
Формат/Информация                        : Audio Coding 3
Расширение режима                        : CM (complete main)
Параметр Endianness формата              : Big
Идентификатор кодека                     : A_AC3
Продолжительность                        : 2 ч. 1 м.
Вид битрейта                             : Постоянный
Битрейт                                  : 384 Кбит/сек
Каналы                                   : 6 каналов
Расположение каналов                     : Front: L C R, Side: L R, LFE
Частота                                  : 48,0 КГц
Метод сжатия                             : С потерями
Задержка видео                           : -83 мс.
Размер потока                            : 334 Мбайт (16%)
Заголовок                                : Original
Язык                                     : English
Default                                  : Нет
Forced                                   : Нет

Текст #1
Идентификатор                            : 4
Формат                                   : UTF-8
Идентификатор кодека                     : S_TEXT/UTF8
Идентификатор кодека/Информация          : UTF-8 Plain Text
Заголовок                                : Forced
Язык                                     : Russian
Default                                  : Да
Forced                                   : Нет

Текст #2
Идентификатор                            : 5
Формат                                   : UTF-8
Идентификатор кодека                     : S_TEXT/UTF8
Идентификатор кодека/Информация          : UTF-8 Plain Text
Язык                                     : English
Default                                  : Нет
Forced                                   : Нет

Текст #3
Идентификатор                            : 6
Формат                                   : UTF-8
Идентификатор кодека                     : S_TEXT/UTF8
Идентификатор кодека/Информация          : UTF-8 Plain Text
Заголовок                                : SDH
Язык                                     : English
Default                                  : Нет
Forced                                   : Нет

Меню
00:00:00.000                             : en:00:00:00.000
00:12:07.518                             : en:00:12:07.518
00:21:19.737                             : en:00:21:19.737
00:33:31.968                             : en:00:33:31.968
00:42:37.013                             : en:00:42:37.013
00:51:32.715                             : en:00:51:32.715
01:06:45.835                             : en:01:06:45.835
01:13:14.015                             : en:01:13:14.015
01:23:23.290                             : en:01:23:23.290
01:33:47.872                             : en:01:33:47.872
01:43:22.029                             : en:01:43:22.029
01:53:00.774                             : en:01:53:00.774

Скриншоты:

Время раздачи: 24/7 (до появления первых 3-5 скачавших)
   
Торрент: Зарегистрирован [25 фев 2016, 06:22] Скачать торрент
Скачать торрент
О MediaGet
[ Размер 10.81 КБ / Просмотров 146 ]

Статус:
 
Приватный: Нет (DHT включён)
Размер: 2.01 ГБ (2 161 956 188 байт)
   
Аватара пользователя

Администратор
Администратор
 
Раздал: 2.33 ПБ
Скачал: 1.02 ПБ
Ратио: 2.281
Сообщения: 3723
Зарегистрирован: 07 май 2010, 17:29
Medals: 1
Лучший релиз за месяц (1)
  • Личное сообщение
  • ICQ

  • Похожие торренты
    Ответы
    Просмотры
    Последнее сообщение

Вернуться в Зарубежные фильмы (Rip's)

Кто сейчас на конференции

Зарегистрированные пользователи: bigcatwar, ванюшка

Ресурс не предоставляет электронные версии произведений, а занимается лишь коллекционированием и каталогизацией ссылок, присылаемых и публикуемых на форуме нашими читателями. Если вы являетесь правообладателем какого-либо представленного материала и не желаете чтобы ссылка на него находилась в нашем каталоге, свяжитесь с нами и мы незамедлительно удалим её. Файлы для обмена на трекере предоставлены пользователями сайта, и администрация не несёт ответственности за их содержание. Просьба не заливать файлы, защищенные авторскими правами, а также файлы нелегального содержания!
cron