Воины дракона / Dragon Warriors / Dudes & Dragons (Маклейн Нельсон / Maclain Nelson, Стивен Шимек / Stephen Shimek) [2015, США, фэнтези, боевик, комедия, SATRip] MVO скачать торрент

Мировая классика кино, Rip, Рипы, Зарубежные фильмы

Модератор: Модераторы видео

  • Статистика раздачи
Размер: 1.45 ГБ   |  Зарегистрирован: 24 фев 2016, 03:05   |   .torrent скачан: 17 раз
Сидеров: 9  [ 0 байт/сек ]     Личеров: 3  [ 0 байт/сек ]  
Список файлов : Кто скачал : Раздают : Скачивают : Кто благодарил : История : Не раздающие : Запрашивали сидеров : Внешние трекеры 
  

Воины дракона / Dragon Warriors / Dudes & Dragons (Маклейн Нельсон / Maclain Nelson, Стивен Шимек / Stephen Shimek) [2015, США, фэнтези, боевик, комедия, SATRip] MVO

Сообщение Админ » 24 фев 2016, 03:06

Воины дракона / Dragon Warriors / Dudes & Dragons

Страна: США
Жанр: фэнтези, боевик, Комедия
Год выпуска: 2015
Продолжительность: 01:43:02

Перевод: Профессиональный (многоголосый закадровый)
Cубтитры: нет
Оригинальная аудиодорожка: нет

Режиссер: Маклейн Нельсон / Maclain Nelson, Стивен Шимек / Stephen Shimek

В ролях: Джеймс Марстерс
Кэйтлин Даблдэй
Люк Перри
Адам Джонсон
Маклейн Нельсон
Клэр Нидерпрюэм
Джейк Ван Вагонер
Эрик Дентон
Шеннон Энгеманн
Лорин Кент

Описание:
Злой волшебник, лорд Тенсли, добивается руки и сердца прекрасной принцессы, леди Энногард. Она отказывается, он похищает ее и натравливает дракона на земли королевства. Злодей клянется, что, пока принцесса не согласится, дракон будет уничтожать всех, чьи сердца открыты для любви. Узница посылает волшебную стрекозу, чтобы та нашла воина, способного сразить дракона и освободить землю от опасности. Тем временем молодой воин по имени Камилан мечтает жениться на своей возлюбленной, принцессе эльфов. Родители не дают ему благословения на брак, пока не женится его старший брат Рамикус, уже давно покинувший дом изгой. Камилан пускается на поиски брата, чтобы вместе с ним сразить дракона, освободив тем самым леди Энногард, красота которой не может не тронуть ожесточенное сердце Рамикуса. Вскоре герои вместе со своими верными оруженосцами отправляются в путешествие, в финале которого им предстоит положить конец правлению тирана Тенсли…

Сэмпл: http://multi-up.com/1090313



Качество видео: SATRip
Формат видео: AVI

Видео: MPEG4, XviD, 720x400 (16:9), 25.000 fps, 1 816 Kbps (0.252 bit/pixel)
Аудио: AC-3, 48.0 KHz, 2 ch, 192 Kbps, CBR
Общее
Полное имя : N:\Воины дракона.avi
Формат : AVI
Формат/Информация : Audio Video Interleave
Размер файла : 1,45 Гбайт
Продолжительность : 1 ч. 43 м.
Общий поток : 2018 Кбит/сек
Название фильма : Воины дракона / Dragon Warriors / Dudes & Dragons (2015)
Программа кодирования : VirtualDubMod 1.5.10.2 (build 2540/release)
Библиотека кодирования : VirtualDubMod build 2540/release
Авторское право : miha2154

Видео
Идентификатор : 0
Формат : MPEG-4 Visual
Профиль формата : Advanced [email protected]
Параметр BVOP формата : 1
Параметр QPel формата : Нет
Параметр GMC формата : Без точки перехода
Параметр матрицы формата : Выборочная
Идентификатор кодека : XVID
Идентификатор кодека/Подсказка : XviD
Продолжительность : 1 ч. 43 м.
Битрейт : 1816 Кбит/сек
Ширина : 720 пикселей
Высота : 400 пикселей
Соотношение сторон : 16:9
Частота кадров : 25,000 кадров/сек
Цветовое пространство : YUV
Субдискретизация насыщенности : 4:2:0
Битовая глубина : 8 бит
Тип развёртки : Прогрессивная
Метод сжатия : С потерями
Бит/(Пиксели*Кадры) : 0.252
Размер потока : 1,31 Гбайт (90%)
Библиотека кодирования : XviD 65

Аудио
Идентификатор : 1
Формат : AC-3
Формат/Информация : Audio Coding 3
Расширение режима : CM (complete main)
Параметр Endianness формата : Big
Идентификатор кодека : 2000
Продолжительность : 1 ч. 43 м.
Вид битрейта : Постоянный
Битрейт : 192 Кбит/сек
Каналы : 2 канала
Расположение каналов : Front: L R
Частота : 48,0 КГц
Частота кадров : 31,250 кадров/сек (1536 spf)
Метод сжатия : С потерями
Размер потока : 141 Мбайт (10%)
Выравнивание : Разделение по промежуткам
Продолжительность промежутка : 40 мс. (1,00 видеокадр)
Время предзагрузки промежутка : 500 мс.
Заголовок : Профессиональный (многоголосый закадровый)


   
Торрент: Зарегистрирован [24 фев 2016, 03:05] Скачать торрент
Скачать торрент
О MediaGet
[ Размер 14.98 КБ / Просмотров 117 ]

Статус:
 
Приватный: Нет (DHT включён)
Размер: 1.45 ГБ (1 559 261 184 байт)
   
Аватара пользователя

Администратор
Администратор
 
Раздал: 2.33 ПБ
Скачал: 1.02 ПБ
Ратио: 2.281
Сообщения: 3719
Зарегистрирован: 07 май 2010, 17:29
Medals: 1
Лучший релиз за месяц (1)
  • Личное сообщение
  • ICQ

Вернуться в Зарубежные фильмы (Rip's)

Кто сейчас на конференции

Зарегистрированные пользователи: нет зарегистрированных пользователей

Ресурс не предоставляет электронные версии произведений, а занимается лишь коллекционированием и каталогизацией ссылок, присылаемых и публикуемых на форуме нашими читателями. Если вы являетесь правообладателем какого-либо представленного материала и не желаете чтобы ссылка на него находилась в нашем каталоге, свяжитесь с нами и мы незамедлительно удалим её. Файлы для обмена на трекере предоставлены пользователями сайта, и администрация не несёт ответственности за их содержание. Просьба не заливать файлы, защищенные авторскими правами, а также файлы нелегального содержания!
cron