Ближайший / De nrmeste (2015) DVDRip скачать торрент

Мировая классика кино, Rip, Рипы, Зарубежные фильмы

Модератор: Модераторы видео

  • Статистика раздачи
Размер: 1.44 ГБ   |  Зарегистрирован: 23 фев 2016, 20:12   |   .torrent скачан: 18 раз
Сидеров: 817  [ 0 байт/сек ]     Личеров: 38  [ 0 байт/сек ]  
Список файлов : Кто скачал : Раздают : Скачивают : Кто благодарил : История : Не раздающие : Запрашивали сидеров : Внешние трекеры 
  

Ближайший / De nrmeste (2015) DVDRip

Сообщение Админ » 23 фев 2016, 20:12

Ближайший / De nrmeste (2015) DVDRip

Производство: Норвегия / Maipo Film
Жанр: Драма

Режиссер: Анне Севитски
Актеры: Ине Мари Вильманн, Симон Йёнссон Бергер, Аннеке фон дер Липпе, Оскар Дукассе, Анна Дворак, Ханс Рённинген, Силье Стурстейн, Терье Стрёмдаль, Оддгейр Туне, Артуро Товар

Описание:
Шарлотта ведет вроде бы комфортную жизнь, встречаясь с братом лучшего друга и обучая маленьких детей танцам, но кое-чего ей все же не хватает: прохладное отношение матери и болезнь отца-алкоголика — это все, что она имеет от родных. Узнав о том, что Хенрик, ее сводный брат, которого она никогда не видела, переехал в Осло, Шарлотта пытается наладить с ним контакт. Невинные поначалу фантазии в этих отношениях очень скоро превращаются в самоубийственное сексуальное влечение, которое угрожает перевернуть вверх ногами и сломать сразу обе жизни…


Дата мировой премьеры: 23 января 2015

Продолжительность: 01:38:28
Качество видео: DVDRip
Перевод: Многоголосый закадровый, любительский (GreenРай Studio)
Субтитры: отсутствуют

Видео: Xvid, 720x304, ~1707 Kbps
Аудио: AC3, 6 ch, 384 kbps, CBR
Семпл: Скачать
Код:
Код: Выделить всё
Формат : AVI
Формат/Информация : Audio Video Interleave
Размер файла : 1,44 Гбайт
Продолжительность : 1 ч. 38 м.
Общий поток : 2099 Кбит/сек
Программа кодирования : VirtualDubMod 1.5.10.2 (build 2540/release)
Библиотека кодирования : VirtualDubMod build 2540/release

Видео
Идентификатор : 0
Формат : MPEG-4 Visual
Профиль формата : Advanced [email protected]
Параметр BVOP формата : 1
Параметр QPel формата : Нет
Параметр GMC формата : Без точки перехода
Параметр матрицы формата : Выборочная
Идентификатор кодека : XVID
Идентификатор кодека/Подсказка : XviD
Продолжительность : 1 ч. 38 м.
Битрейт : 1707 Кбит/сек
Ширина : 720 пикселей
Высота : 304 пикселя
Соотношение сторон : 2,35:1
Частота кадров : 20,000 кадров/сек
Цветовое пространство : YUV
Субдискретизация насыщенности : 4:2:0
Битовая глубина : 8 бит
Тип развёртки : Прогрессивная
Метод сжатия : С потерями
Бит/(Пиксели*Кадры) : 0.390
Размер потока : 1,17 Гбайт (81%)
Библиотека кодирования : XviD 73

Аудио
Идентификатор : 1
Формат : AC-3
Формат/Информация : Audio Coding 3
Расширение режима : CM (complete main)
Параметр Endianness формата : Big
Идентификатор кодека : 2000
Продолжительность : 1 ч. 38 м.
Вид битрейта : Постоянный
Битрейт : 384 Кбит/сек
Каналы : 6 каналов
Расположение каналов : Front: L C R, Side: L R, LFE
Частота : 48,0 КГц
Метод сжатия : С потерями
Размер потока : 270 Мбайт (18%)
Выравнивание : Разделение по промежуткам
Продолжительность промежутка : 50 мс. (1,00 видеокадр)
Время предзагрузки промежутка : 500 мс.

Скриншоты:



Время раздачи: По мере возможности..(до появления первых 3-5 скачавших)
   
Торрент: Зарегистрирован [23 фев 2016, 20:12] Скачать торрент
Скачать торрент
О MediaGet
[ Размер 15.24 КБ / Просмотров 94 ]

Статус:
 
Приватный: Нет (DHT включён)
Размер: 1.44 ГБ (1 550 297 088 байт)
   
Аватара пользователя

Администратор
Администратор
 
Раздал: 2.33 ПБ
Скачал: 1.02 ПБ
Ратио: 2.281
Сообщения: 3719
Зарегистрирован: 07 май 2010, 17:29
Medals: 1
Лучший релиз за месяц (1)
  • Личное сообщение
  • ICQ

  • Похожие торренты
    Ответы
    Просмотры
    Последнее сообщение

Вернуться в Зарубежные фильмы (Rip's)

Кто сейчас на конференции

Зарегистрированные пользователи: нет зарегистрированных пользователей

Ресурс не предоставляет электронные версии произведений, а занимается лишь коллекционированием и каталогизацией ссылок, присылаемых и публикуемых на форуме нашими читателями. Если вы являетесь правообладателем какого-либо представленного материала и не желаете чтобы ссылка на него находилась в нашем каталоге, свяжитесь с нами и мы незамедлительно удалим её. Файлы для обмена на трекере предоставлены пользователями сайта, и администрация не несёт ответственности за их содержание. Просьба не заливать файлы, защищенные авторскими правами, а также файлы нелегального содержания!
cron