Бесконечно белый медведь / Infinitely Polar Bear (2014) BDRip [H.264] скачать торрент

Мировая классика кино, Rip, Рипы, Зарубежные фильмы

Модератор: Модераторы видео

  • Статистика раздачи
Размер: 2.18 ГБ   |  Зарегистрирован: 23 фев 2016, 20:12   |   .torrent скачан: 2 раз
Сидеров: 66  [ 0 байт/сек ]     Личеров: 0  [ 0 байт/сек ]  
Список файлов : Кто скачал : Раздают : Скачивают : Кто благодарил : История : Не раздающие : Запрашивали сидеров : Внешние трекеры 
  

Бесконечно белый медведь / Infinitely Polar Bear (2014) BDRip [H.264]

Сообщение Админ » 23 фев 2016, 20:12

Бесконечно белый медведь / Infinitely Polar Bear (2014) BDRip [H.264]

Производство: США / Bad Robot, KGB Media, Paper Street Films
Жанр: драма, Комедия

Режиссер: Майя Форбс
Продюсер: Сэм Бисби, Бинго Губельман, Бенжи Кон
Актеры: Зои Салдана, Марк Руффало, Кейр Дуллеа, Уоллес Володарски, Имоджин Володарски, Ashley Aufderheide, Мэри О’Рурк, Брианн Брози, Адам В. Майэрсон, Уильям Ксифарас, Джорджия Лиман, Бет Диксон

Описание:
Кэмерон пытается вернуть свою жену Мэгги. Ради этого он пробует взять на себя полную ответственность за их двух молодых дочерей, которые отнюдь не стараются облегчить ему задачу.


Рейтинг MPAA: R (лицам до 17 лет обязательно присутствие взрослого)
Дата мировой премьеры: 18 января 2014
Дата выхода DVD релиза: 6 марта 2016, «CP Дистрибуция»

Продолжительность: 01:28:00
Качество: BDRip (H.264)
Перевод: Профессиональный (многоголосый, закадровый) (Лицензия BD CEE)
Вид субтитров: Вшитые, отключаемые
Язык субтитров: Русский, Английский

Видео: AVC/H.264, 1056x594, (16:9), 2653 Kbps, 23.976 fps
Аудио: AC3, 6 ch, 448 kbps - Русский
Аудио: AC3, 6 ch, 448 kbps - Английский
Код:
Код: Выделить всё
Общее
Уникальный идентификатор : 219669473297068996438488911190597092624 (0xA542CD38DF6E7D03B6C46AC3E9D8C510)
Полное имя : Infinitely.Polar.Bear.2014.BDRip-AVC.MVO.2.18Gb.mkv
Формат : Matroska
Версия формата : Version 4 / Version 2
Размер файла : 2,18 Гбайт
Продолжительность : 1 ч. 28 м.
Общий поток : 3552 Кбит/сек
Дата кодирования : UTC 2016-01-09 10:52:51
Программа кодирования : mkvmerge v8.6.1 ('Flying') 64bit
Библиотека кодирования : libebml v1.3.3 + libmatroska v1.4.4

Видео
Идентификатор : 4
Формат : AVC
Формат/Информация : Advanced Video Codec
Профиль формата :
Параметр CABAC формата : Да
Параметр ReFrames формата : 13 кадров
Идентификатор кодека : V_MPEG4/ISO/AVC
Продолжительность : 1 ч. 28 м.
Битрейт : 2653 Кбит/сек
Ширина : 1056 пикселей
Высота : 594 пикселя
Соотношение сторон : 16:9
Режим частоты кадров : Постоянный
Частота кадров : 23,976 (24000/1001) кадра/сек
Цветовое пространство : YUV
Субдискретизация насыщенности : 4:2:0
Битовая глубина : 8 бит
Тип развёртки : Прогрессивная
Бит/(Пиксели*Кадры) : 0.176
Размер потока : 1,63 Гбайт (75%)
Библиотека кодирования : x264 core 148 r2638kMod 7599210
Настройки программы : cabac=1 / ref=13 / deblock=1:-3:-3 / analyse=0x3:0x133 / me=umh / subme=11 / psy=1 / fade_compensate=0.00 / psy_rd=1.00:0.10 / mixed_ref=1 / me_range=48 / chroma_me=1 / trellis=2 / 8x8dct=1 / cqm=0 / deadzone=21,11 / fast_pskip=0 / chroma_qp_offset=-3 / threads=12 / lookahead_threads=3 / sliced_threads=0 / nr=0 / decimate=0 / interlaced=0 / bluray_compat=0 / constrained_intra=0 / fgo=0 / bframes=15 / b_pyramid=2 / b_adapt=2 / b_bias=0 / direct=3 / weightb=1 / open_gop=0 / weightp=2 / keyint=240 / keyint_min=23 / scenecut=40 / intra_refresh=0 / rc_lookahead=60 / rc=2pass / mbtree=0 / bitrate=2653 / ratetol=1.0 / qcomp=0.70 / qpmin=0 / qpmax=69 / qpstep=4 / cplxblur=20.0 / qblur=0.5 / vbv_maxrate=50000 / vbv_bufsize=62500 / nal_hrd=none / filler=0 / ip_ratio=1.40 / pb_ratio=1.30 / aq=3:0.90
Default : Да
Forced : Нет

Аудио #1
Идентификатор : 1
Формат : AC-3
Формат/Информация : Audio Coding 3
Расширение режима : CM (complete main)
Параметр Endianness формата : Big
Идентификатор кодека : A_AC3
Продолжительность : 1 ч. 28 м.
Вид битрейта : Постоянный
Битрейт : 448 Кбит/сек
Каналы : 6 каналов
Расположение каналов : Front: L C R, Side: L R, LFE
Частота : 48,0 КГц
Частота кадров : 31,250 кадров/сек (1536 spf)
Метод сжатия : С потерями
Размер потока : 282 Мбайт (13%)
Язык : Russian
Default : Да
Forced : Нет

Аудио #2
Идентификатор : 5
Формат : AC-3
Формат/Информация : Audio Coding 3
Расширение режима : CM (complete main)
Параметр Endianness формата : Big
Идентификатор кодека : A_AC3
Продолжительность : 1 ч. 28 м.
Вид битрейта : Постоянный
Битрейт : 448 Кбит/сек
Каналы : 6 каналов
Расположение каналов : Front: L C R, Side: L R, LFE
Частота : 48,0 КГц
Частота кадров : 31,250 кадров/сек (1536 spf)
Метод сжатия : С потерями
Размер потока : 282 Мбайт (13%)
Язык : English
Default : Нет
Forced : Нет

Текст #1
Идентификатор : 2
Формат : UTF-8
Идентификатор кодека : S_TEXT/UTF8
Идентификатор кодека/Информация : UTF-8 Plain Text
Продолжительность : 1 ч. 23 м.
Битрейт : 111 бит/сек
Count of elements : 1138
Размер потока : 68,3 Кбайт (0%)
Язык : Russian
Default : Нет
Forced : Нет

Текст #2
Идентификатор : 3
Формат : UTF-8
Идентификатор кодека : S_TEXT/UTF8
Идентификатор кодека/Информация : UTF-8 Plain Text
Продолжительность : 1 ч. 27 м.
Битрейт : 74 бит/сек
Count of elements : 1349
Размер потока : 47,5 Кбайт (0%)
Язык : English
Default : Нет
Forced : Нет

Меню
00:00:00.000 : en:Chapter 1
00:06:18.378 : en:Chapter 2
00:09:38.661 : en:Chapter 3
00:13:21.217 : en:Chapter 4
00:17:34.094 : en:Chapter 5
00:20:57.464 : en:Chapter 6
00:24:25.422 : en:Chapter 7
00:30:03.009 : en:Chapter 8
00:33:41.561 : en:Chapter 9
00:38:13.582 : en:Chapter 10
00:43:01.370 : en:Chapter 11
00:47:36.186 : en:Chapter 12
00:53:01.428 : en:Chapter 13
01:03:15.333 : en:Chapter 14
01:11:06.303 : en:Chapter 15
01:18:11.311 : en:Chapter 16

Скриншоты:


Время раздачи: 24/7
   
Торрент: Зарегистрирован [23 фев 2016, 20:12] Скачать торрент
Скачать торрент
О MediaGet
[ Размер 11.67 КБ / Просмотров 63 ]

Статус:
 
Приватный: Нет (DHT включён)
Размер: 2.18 ГБ (2 344 209 761 байт)
   
Аватара пользователя

Администратор
Администратор
 
Раздал: 2.33 ПБ
Скачал: 1.02 ПБ
Ратио: 2.281
Сообщения: 3723
Зарегистрирован: 07 май 2010, 17:29
Medals: 1
Лучший релиз за месяц (1)
  • Личное сообщение
  • ICQ

  • Похожие торренты
    Ответы
    Просмотры
    Последнее сообщение

Вернуться в Зарубежные фильмы (Rip's)

Кто сейчас на конференции

Зарегистрированные пользователи: bigcatwar, ванюшка

Ресурс не предоставляет электронные версии произведений, а занимается лишь коллекционированием и каталогизацией ссылок, присылаемых и публикуемых на форуме нашими читателями. Если вы являетесь правообладателем какого-либо представленного материала и не желаете чтобы ссылка на него находилась в нашем каталоге, свяжитесь с нами и мы незамедлительно удалим её. Файлы для обмена на трекере предоставлены пользователями сайта, и администрация не несёт ответственности за их содержание. Просьба не заливать файлы, защищенные авторскими правами, а также файлы нелегального содержания!
cron