Ночь в старой Мексике / A Night in Old Mexico (2013) BDRip [AVO] скачать торрент

Мировая классика кино, Rip, Рипы, Зарубежные фильмы

Модератор: Модераторы видео

  • Статистика раздачи
Размер: 1.46 ГБ   |  Зарегистрирован: 23 фев 2016, 20:12   |   .torrent скачан: 0 раз
Сидеров: 23  [ 0 байт/сек ]     Личеров: 0  [ 0 байт/сек ]  
Список файлов : Кто скачал : Раздают : Скачивают : Кто благодарил : История : Не раздающие : Запрашивали сидеров : Внешние трекеры 
  

Ночь в старой Мексике / A Night in Old Mexico (2013) BDRip [AVO]

Сообщение Админ » 23 фев 2016, 20:12

Ночь в старой Мексике / A Night in Old Mexico (2013) BDRip

Производство: Испания, США
Жанр: Драма, Приключения

Режиссер: Эмилио Арагон
Актеры: Джеймс Хеберт, Джереми Ирвин, Джим Пэррак, Луис Тосар, Майкл Рэй Эскамиллья, Роберт Дювалл, С.К. МакФарланд, Хоакин Косио, Энджи Сепеда, Эрик А. Уильямс

Описание:
Вынужденный отказаться от своего ранчо и земли Ред Боуви, вместо того чтобы остепениться на старости лет, прыгает в свой Кадиллак и мчится в Мексику вместе со своим внуком Галли, которого он только что повстречал…



Продолжительность: 01:44:01
Качество видео: BDRip
Перевод: Одноголосый закадровый, авторский (Ю. Живов)

Видео: Xvid, 720x304, ~1555 Кбит/с
Аудио: AC3, 6 ch, 448 Кбит/с, CBR
Семпл: Скачать
Код:
Код: Выделить всё
Общее
Полное имя                               : D:\FILMЬl\JR\Noch.V.Staroi.Meksike.avi
Формат                                   : AVI
Формат/Информация                        : Audio Video Interleave
Размер файла                             : 1,46 Гбайт
Продолжительность                        : 1 ч. 44 м.
Общий поток                              : 2012 Кбит/сек
Программа кодирования                    : VirtualDubMod 1.5.10.2 (build 2540/release)
Библиотека кодирования                   : VirtualDubMod build 2540/release

Видео
Идентификатор                            : 0
Формат                                   : MPEG-4 Visual
Профиль формата                          : Advanced [email protected]
Параметр BVOP формата                    : 1
Параметр QPel формата                    : Нет
Параметр GMC формата                     : Без точки перехода
Параметр матрицы формата                 : Default (H.263)
Идентификатор кодека                     : XVID
Идентификатор кодека/Подсказка           : XviD
Продолжительность                        : 1 ч. 44 м.
Битрейт                                  : 1555 Кбит/сек
Ширина                                   : 720 пикселей
Высота                                   : 304 пикселя
Соотношение сторон                       : 2,35:1
Частота кадров                           : 23,976 кадра/сек
Цветовое пространство                    : YUV
Субдискретизация насыщенности            : 4:2:0
Битовая глубина                          : 8 бит
Тип развёртки                            : Прогрессивная
Метод сжатия                             : С потерями
Бит/(Пиксели*Кадры)                      : 0.296
Размер потока                            : 1,13 Гбайт (77%)
Библиотека кодирования                   : XviD 67

Аудио
Идентификатор                            : 1
Формат                                   : AC-3
Формат/Информация                        : Audio Coding 3
Расширение режима                        : CM (complete main)
Параметр Endianness формата              : Big
Идентификатор кодека                     : 2000
Продолжительность                        : 1 ч. 44 м.
Вид битрейта                             : Постоянный
Битрейт                                  : 448 Кбит/сек
Каналы                                   : 6 каналов
Расположение каналов                     : Front: L C R, Side: L R, LFE
Частота                                  : 48,0 КГц
Метод сжатия                             : С потерями
Размер потока                            : 333 Мбайт (22%)
Выравнивание                             : Разделение по промежуткам
Продолжительность промежутка             : 42  мс. (1,00 видеокадр)
Время предзагрузки промежутка            : 500  мс.

Скриншоты:



Время раздачи: C 09:00 до 23:30 до 5 скачавших (до появления первых 3-5 скачавших)
   
Торрент: Зарегистрирован [23 фев 2016, 20:12] Скачать торрент
Скачать торрент
О MediaGet
[ Размер 15.45 КБ / Просмотров 61 ]

Статус:
 
Приватный: Нет (DHT включён)
Размер: 1.46 ГБ (1 569 832 960 байт)
   
Аватара пользователя

Администратор
Администратор
 
Раздал: 2.33 ПБ
Скачал: 1.02 ПБ
Ратио: 2.281
Сообщения: 3723
Зарегистрирован: 07 май 2010, 17:29
Medals: 1
Лучший релиз за месяц (1)
  • Личное сообщение
  • ICQ

Вернуться в Зарубежные фильмы (Rip's)

Кто сейчас на конференции

Зарегистрированные пользователи: bigcatwar

Ресурс не предоставляет электронные версии произведений, а занимается лишь коллекционированием и каталогизацией ссылок, присылаемых и публикуемых на форуме нашими читателями. Если вы являетесь правообладателем какого-либо представленного материала и не желаете чтобы ссылка на него находилась в нашем каталоге, свяжитесь с нами и мы незамедлительно удалим её. Файлы для обмена на трекере предоставлены пользователями сайта, и администрация не несёт ответственности за их содержание. Просьба не заливать файлы, защищенные авторскими правами, а также файлы нелегального содержания!
cron