http://ourthailand.ru/ о Тайланде.

Черная смерть / Phi ha Ayothaya (2015) DVDRip [VO] скачать торрент

Мировая классика кино, Rip, Рипы, Зарубежные фильмы

Модератор: Модераторы видео

  • Статистика раздачи
Размер: 1.14 ГБ   |  Зарегистрирован: 23 фев 2016, 20:11   |   .torrent скачан: 10 раз
Сидеров: 66  [ 0 байт/сек ]     Личеров: 3  [ 0 байт/сек ]  
Список файлов : Кто скачал : Раздают : Скачивают : Кто благодарил : История : Не раздающие : Запрашивали сидеров : Внешние трекеры 
  

Черная смерть / Phi ha Ayothaya (2015) DVDRip [VO]

Сообщение Админ » 23 фев 2016, 20:11

Черная смерть / Phi ha Ayothaya (2015) DVDRip

Производство: Таиланд / Diamond Light Film Co., Key Lighting And Service Co., Sahamongkol Film International Co. Ltd.
Жанр: Ужасы

Режиссер: Чалермчатри Юкол
Актеры: Чаат Артачинта, Апа Бхавилаи, Наруча Чаймареунг, Ампхан Чароенсакаларп, Сораторн Чинйорхор, Джон Ерик, Оран Катсуван, Вери Ладапан,Занапол Махазорн

Описание:
В далёкой тайской деревушке жизнь течёт своим размеренным ритмом. Кто-то влюбляется, кто-то ругается, а кто-то не вылазит из борделя. Но всё это в одночасье меняется, когда на окраине деревни находят человека, всего покрытого ранами и язвами...


Дата мировой премьеры: 14 мая 2015

Релиз от: Заповедника Ужаса

Продолжительность: 01:20:44
Качество видео: DVDRip
Перевод: Одноголосый закадровый, любительский (МЕГАПЫХАРЬ)
Субтитры: Отсутствуют

Видео: Xvid, 720x416, ~1756 Kbps
Аудио: MP3, 2 ch, 256 Kbps, CBR
Код:
Код: Выделить всё
Общее
Полное имя                               : F:\торрент файлы\BLACK_DEATH.avi
Формат                                   : AVI
Формат/Информация                        : Audio Video Interleave
Размер файла                             : 1,14 Гбайт
Продолжительность                        : 1 ч. 20 м.
Общий поток                              : 2022 Кбит/сек
Программа кодирования                    : VirtualDubMod 1.5.10.2 (build 2540/release)
Библиотека кодирования                   : VirtualDubMod build 2540/release

Видео
Идентификатор                            : 0
Формат                                   : MPEG-4 Visual
Профиль формата                          : Advanced [email protected]
Параметр BVOP формата                    : Нет
Параметр QPel формата                    : Нет
Параметр GMC формата                     : Без точки перехода
Параметр матрицы формата                 : Выборочная
Идентификатор кодека                     : XVID
Идентификатор кодека/Подсказка           : XviD
Продолжительность                        : 1 ч. 20 м.
Битрейт                                  : 1756 Кбит/сек
Ширина                                   : 720 пикселей
Высота                                   : 416 пикселей
Соотношение сторон                       : 1,731
Частота кадров                           : 25,000 кадров/сек
Цветовое пространство                    : YUV
Субдискретизация насыщенности            : 4:2:0
Битовая глубина                          : 8 бит
Тип развёртки                            : Прогрессивная
Метод сжатия                             : С потерями
Бит/(Пиксели*Кадры)                      : 0.235
Размер потока                            : 1014 Мбайт (87%)
Библиотека кодирования                   : XviD 1.2.1 (UTC 2008-12-04)

Аудио
Идентификатор                            : 1
Формат                                   : MPEG Audio
Версия формата                           : Version 1
Профиль формата                          : Layer 3
Идентификатор кодека                     : 55
Идентификатор кодека/Подсказка           : MP3
Продолжительность                        : 1 ч. 20 м.
Вид битрейта                             : Постоянный
Битрейт                                  : 256 Кбит/сек
Каналы                                   : 2 канала
Частота                                  : 44,1 КГц
Метод сжатия                             : С потерями
Размер потока                            : 148 Мбайт (13%)
Выравнивание                             : Разделение по промежуткам
Продолжительность промежутка             : 40  мс. (1,00 видеокадр)
Время предзагрузки промежутка            : 500  мс.
Язык                                     : Thai

Скриншоты:



Время раздачи: 24/7 (до появления первых 3-5 скачавших)
   
Торрент: Зарегистрирован [23 фев 2016, 20:11] Скачать торрент
Скачать торрент
О MediaGet
[ Размер 12.08 КБ / Просмотров 72 ]

Статус:
 
Приватный: Нет (DHT включён)
Размер: 1.14 ГБ (1 224 466 432 байт)
   
Аватара пользователя

Администратор
Администратор
 
Раздал: 2.33 ПБ
Скачал: 1.02 ПБ
Ратио: 2.281
Сообщения: 3719
Зарегистрирован: 07 май 2010, 17:29
Medals: 1
Лучший релиз за месяц (1)
  • Личное сообщение
  • ICQ

  • Похожие торренты
    Ответы
    Просмотры
    Последнее сообщение

Вернуться в Зарубежные фильмы (Rip's)

Кто сейчас на конференции

Зарегистрированные пользователи: нет зарегистрированных пользователей

Ресурс не предоставляет электронные версии произведений, а занимается лишь коллекционированием и каталогизацией ссылок, присылаемых и публикуемых на форуме нашими читателями. Если вы являетесь правообладателем какого-либо представленного материала и не желаете чтобы ссылка на него находилась в нашем каталоге, свяжитесь с нами и мы незамедлительно удалим её. Файлы для обмена на трекере предоставлены пользователями сайта, и администрация не несёт ответственности за их содержание. Просьба не заливать файлы, защищенные авторскими правами, а также файлы нелегального содержания!
cron