Трамбо / Trumbo (2015) BDRip [H.264] скачать торрент

Мировая классика кино, Rip, Рипы, Зарубежные фильмы

Модератор: Модераторы видео

  • Статистика раздачи
Размер: 2.85 ГБ   |  Зарегистрирован: 23 фев 2016, 19:48   |   .torrent скачан: 2 раз
Сидеров: 197  [ 0 байт/сек ]     Личеров: 23  [ 0 байт/сек ]  
Список файлов : Кто скачал : Раздают : Скачивают : Кто благодарил : История : Не раздающие : Запрашивали сидеров : Внешние трекеры 
  

Трамбо / Trumbo (2015) BDRip [H.264]

Сообщение Админ » 23 фев 2016, 19:48

Трамбо / Trumbo (2015) BDRip [H.264]

Производство: США / Groundswell Productions, ShivHans Pictures
Жанр: Драма, Биография

Режиссер: Джей Роуч
Продюсер: Кевин Келли Браун, Моника Левинсон, Майкл Лондон
Актеры: Брайан Крэнстон, Дайан Лэйн, Хелен Миррен, Майкл Стулбарг, Дэвид Мальдонадо, Джон Гец, Лаура Флэннери, Дэвид Джеймс Эллиотт, Тоби Николс, Джозеф С. Мартино

Описание:
Далтон Трамбо, один из самых успешных голливудских сценаристов, автор «Римских каникул» и «Спартака», не подозревал, что черный список «Hollywood 10» реально существует, пока сам не попал туда и не был навсегда выкинут из жизни фабрики грез…


Дата мировой премьеры: 12 сентября 2015
Дата премьеры в России: 18 февраля 2016 «Парадиз»

Релиз от: potroks (HELLYWOOD)
Продолжительность: 02:04:39
Качество видео: BDRip [H.264]
Перевод: Многоголосый закадровый, профессиональный (iTunes)
Язык субтитров: английские (Full), английские (SDH)
Вид субтитров: Вшитые отключаемые

Видео: AVC/H.264, 1056x572 (16:9), 2446 kbps, 23,976 fps, 0,169 bpp
Аудио#1: AC3, 5.1 384 kbps (Русский)
Аудио#2: AC3, 5.1 448 kbps (Английский)
Семпл: Скачать
Общее
Уникальный идентификатор : 186593131382708225427721582931494608178 (0x8C6087A87D482966A1CF5B2776249D32)
Полное имя : F:\Trambo.2015.DUAL.BDRip.x264.NNM-CLUB.mkv
Формат : Matroska
Версия формата : Version 4 / Version 2
Размер файла : 2,85 Гбайт
Продолжительность : 2 ч. 4 м.
Общий поток : 3278 Кбит/сек
Название фильма : Trumbo (2015) - HELLYWOOD
Дата кодирования : UTC 2016-02-23 08:53:12
Программа кодирования : mkvmerge v5.9.0 ('On The Loose') built on Dec 15 2012 16:39:58
Библиотека кодирования : libebml v1.3.0 + libmatroska v1.4.0

Видео
Идентификатор : 1
Формат : AVC
Формат/Информация : Advanced Video Codec
Профиль формата :
Параметр CABAC формата : Да
Параметр ReFrames формата : 10 кадров
Идентификатор кодека : V_MPEG4/ISO/AVC
Продолжительность : 2 ч. 4 м.
Битрейт : 2446 Кбит/сек
Ширина : 1056 пикселей
Высота : 572 пикселя
Соотношение сторон : 1,85:1
Режим частоты кадров : Постоянный
Частота кадров : 23,976 кадра/сек
Цветовое пространство : YUV
Субдискретизация насыщенности : 4:2:0
Битовая глубина : 8 бит
Тип развёртки : Прогрессивная
Бит/(Пиксели*Кадры) : 0.169
Размер потока : 2,07 Гбайт (73%)
Заголовок : potroks
Библиотека кодирования : x264 core 146 r2538 121396c
Настройки программы : cabac=1 / ref=10 / deblock=1:-3:-3 / analyse=0x3:0x113 / me=umh / subme=11 / psy=1 / psy_rd=0.96:0.00 / mixed_ref=1 / me_range=48 / chroma_me=1 / trellis=2 / 8x8dct=1 / cqm=0 / deadzone=21,11 / fast_pskip=0 / chroma_qp_offset=-2 / threads=9 / lookahead_threads=2 / sliced_threads=0 / nr=0 / decimate=0 / interlaced=0 / bluray_compat=0 / constrained_intra=0 / bframes=11 / b_pyramid=2 / b_adapt=2 / b_bias=0 / direct=3 / weightb=1 / open_gop=0 / weightp=2 / keyint=240 / keyint_min=23 / scenecut=40 / intra_refresh=0 / rc_lookahead=60 / rc=2pass / mbtree=0 / bitrate=2446 / ratetol=1.0 / qcomp=0.70 / qpmin=0 / qpmax=69 / qpstep=4 / cplxblur=20.0 / qblur=0.5 / vbv_maxrate=14000 / vbv_bufsize=14000 / nal_hrd=none / filler=0 / ip_ratio=1.35 / pb_ratio=1.25 / aq=1:0.80
Язык : English
Default : Да
Forced : Нет

Аудио #1
Идентификатор : 2
Формат : AC-3
Формат/Информация : Audio Coding 3
Расширение режима : CM (complete main)
Параметр Endianness формата : Big
Идентификатор кодека : A_AC3
Продолжительность : 2 ч. 4 м.
Вид битрейта : Постоянный
Битрейт : 384 Кбит/сек
Каналы : 6 каналов
Расположение каналов : Front: L C R, Side: L R, LFE
Частота : 48,0 КГц
Битовая глубина : 16 бит
Метод сжатия : С потерями
Размер потока : 342 Мбайт (12%)
Заголовок : MVO | DD 5.1 @ 384 kbps - iTunes
Язык : Russian
Default : Да
Forced : Нет

Аудио #2
Идентификатор : 3
Формат : AC-3
Формат/Информация : Audio Coding 3
Расширение режима : CM (complete main)
Параметр Endianness формата : Big
Идентификатор кодека : A_AC3
Продолжительность : 2 ч. 4 м.
Вид битрейта : Постоянный
Битрейт : 448 Кбит/сек
Каналы : 6 каналов
Расположение каналов : Front: L C R, Side: L R, LFE
Частота : 48,0 КГц
Битовая глубина : 16 бит
Метод сжатия : С потерями
Размер потока : 399 Мбайт (14%)
Заголовок : Original | DD 5.1 @ 448 kbps
Язык : English
Default : Нет
Forced : Нет

Текст #1
Идентификатор : 4
Формат : UTF-8
Идентификатор кодека : S_TEXT/UTF8
Идентификатор кодека/Информация : UTF-8 Plain Text
Заголовок : Full
Язык : English
Default : Нет
Forced : Нет

Текст #2
Идентификатор : 5
Формат : UTF-8
Идентификатор кодека : S_TEXT/UTF8
Идентификатор кодека/Информация : UTF-8 Plain Text
Заголовок : SDH
Язык : English
Default : Нет
Forced : Нет

Меню
00:00:00.000 : en:Chapter 01
00:07:30.199 : en:Chapter 02
00:14:59.315 : en:Chapter 03
00:20:57.047 : en:Chapter 04
00:26:34.509 : en:Chapter 05
00:33:53.031 : en:Chapter 06
00:37:17.443 : en:Chapter 07
00:44:06.602 : en:Chapter 08
00:49:25.170 : en:Chapter 09
00:55:12.100 : en:Chapter 10
01:02:08.933 : en:Chapter 11
01:08:05.915 : en:Chapter 12
01:16:20.450 : en:Chapter 13
01:23:31.381 : en:Chapter 14
01:29:42.502 : en:Chapter 15
01:34:53.354 : en:Chapter 16
01:39:49.441 : en:Chapter 17
01:47:33.905 : en:Chapter 18
01:52:36.666 : en:Chapter 19
01:58:56.754 : en:Chapter 20

Скриншоты:



Время раздачи: 24/7 до 10 скачавших
   
Торрент: Зарегистрирован [23 фев 2016, 19:48] Скачать торрент
Скачать торрент
О MediaGet
[ Размер 14.95 КБ / Просмотров 73 ]

Статус:
 
Приватный: Нет (DHT включён)
Размер: 2.85 ГБ (3 065 181 794 байт)
   
Аватара пользователя

Администратор
Администратор
 
Раздал: 2.33 ПБ
Скачал: 1.02 ПБ
Ратио: 2.281
Сообщения: 3723
Зарегистрирован: 07 май 2010, 17:29
Medals: 1
Лучший релиз за месяц (1)
  • Личное сообщение
  • ICQ

  • Похожие торренты
    Ответы
    Просмотры
    Последнее сообщение

Вернуться в Зарубежные фильмы (Rip's)

Кто сейчас на конференции

Зарегистрированные пользователи: bigcatwar, ванюшка

Ресурс не предоставляет электронные версии произведений, а занимается лишь коллекционированием и каталогизацией ссылок, присылаемых и публикуемых на форуме нашими читателями. Если вы являетесь правообладателем какого-либо представленного материала и не желаете чтобы ссылка на него находилась в нашем каталоге, свяжитесь с нами и мы незамедлительно удалим её. Файлы для обмена на трекере предоставлены пользователями сайта, и администрация не несёт ответственности за их содержание. Просьба не заливать файлы, защищенные авторскими правами, а также файлы нелегального содержания!
cron