Два ствола / Popoz (Мартин Смитс, Эрвин ван ден Эшоф / Martijn Smits, Erwin van den Eshof) [2015, Нидерланды, боевик, комедия, HDRip] MVO (RG.paravozik) скачать торрент

Мировая классика кино, Rip, Рипы, Зарубежные фильмы

Модератор: Модераторы видео

  • Статистика раздачи
Размер: 1.45 ГБ   |  Зарегистрирован: 23 фев 2016, 19:44   |   .torrent скачан: 3 раз
Сидеров: 34  [ 0 байт/сек ]     Личеров: 11  [ 0 байт/сек ]  
Список файлов : Кто скачал : Раздают : Скачивают : Кто благодарил : История : Не раздающие : Запрашивали сидеров : Внешние трекеры 
  

Два ствола / Popoz (Мартин Смитс, Эрвин ван ден Эшоф / Martijn Smits, Erwin van den Eshof) [2015, Нидерланды, боевик, комедия, HDRip] MVO (RG.paravozik)

Сообщение Админ » 23 фев 2016, 19:45

Два ствола / Popoz

Страна: Нидерланды
Жанр: боевик, Комедия
Год выпуска: 2015
Продолжительность: 01:25:18

Перевод: Любительский (многоголосый закадровый) RG.paravozik
Cубтитры: нет
Оригинальная аудиодорожка: голландский

Режиссер: Мартин Смитс, Эрвин ван ден Эшоф / Martijn Smits, Erwin van den Eshof

В ролях: Урия Арнхем, Пьер Бокма, Ноэль Дилен, Рёланд Фернхут, Серхио Хасселбайнк, Фабиан Янсен

Описание: Два неудачливых друга-полицейских попадают в тюрьму за случайное массовое убийство заложников. В тюрьме они быстро обживаются и выходят на след давно разыскиваемой банды наркоторговцев.



Качество видео: HDRip
Формат видео: AVI

Видео: XviD, 720х304, 24,000 кадра/сек, 1976 Кбит/сек
Аудио 1: AC-3, 48,0 КГц, 224 Кбит/сек, 2 канала, русский
Аудио 2: AC-3, 48,0 КГц, 224 Кбит/сек, 2 канала, голландский
Код:
Код: Выделить всё
Общее
Формат                                   : AVI
Формат/Информация                        : Audio Video Interleave
Размер файла                             : 1,45 Гбайт
Продолжительность                        : 1 ч. 25 м.
Общий поток                              : 2439 Кбит/сек
Программа кодирования                    : VirtualDubMod 1.5.10.3 | www.virtualdub-fr.org || (build 2550/release)
Библиотека кодирования                   : VirtualDubMod build 2550/release

Видео
Идентификатор                            : 0
Формат                                   : MPEG-4 Visual
Профиль формата                          : Advanced [email protected]
Параметр BVOP формата                    : 1
Параметр QPel формата                    : Нет
Параметр GMC формата                     : Без точки перехода
Параметр матрицы формата                 : Выборочная
Идентификатор кодека                     : XVID
Идентификатор кодека/Подсказка           : XviD
Продолжительность                        : 1 ч. 25 м.
Битрейт                                  : 1976 Кбит/сек
Ширина                                   : 720 пикселей
Высота                                   : 304 пикселя
Соотношение сторон                       : 2,35:1
Частота кадров                           : 24,000 кадра/сек
Цветовое пространство                    : YUV
Субдискретизация насыщенности            : 4:2:0
Битовая глубина                          : 8 бит
Тип развёртки                            : Прогрессивная
Метод сжатия                             : С потерями
Бит/(Пиксели*Кадры)                      : 0.376
Размер потока                            : 1,18 Гбайт (81%)
Библиотека кодирования                   : XviD 73

Аудио #1
Идентификатор                            : 1
Формат                                   : AC-3
Формат/Информация                        : Audio Coding 3
Расширение режима                        : CM (complete main)
Параметр Endianness формата              : Big
Идентификатор кодека                     : 2000
Продолжительность                        : 1 ч. 25 м.
Вид битрейта                             : Постоянный
Битрейт                                  : 224 Кбит/сек
Каналы                                   : 2 канала
Расположение каналов                     : Front: L R
Частота                                  : 48,0 КГц
Метод сжатия                             : С потерями
Размер потока                            : 137 Мбайт (9%)
Выравнивание                             : Разделение по промежуткам
Продолжительность промежутка             : 42  мс. (1,00 видеокадр)
Время предзагрузки промежутка            : 500  мс.

Аудио #2
Идентификатор                            : 2
Формат                                   : AC-3
Формат/Информация                        : Audio Coding 3
Расширение режима                        : CM (complete main)
Параметр Endianness формата              : Big
Идентификатор кодека                     : 2000
Продолжительность                        : 1 ч. 25 м.
Вид битрейта                             : Постоянный
Битрейт                                  : 224 Кбит/сек
Каналы                                   : 2 канала
Расположение каналов                     : Front: L R
Частота                                  : 48,0 КГц
Метод сжатия                             : С потерями
Размер потока                            : 137 Мбайт (9%)
Выравнивание                             : Разделение по промежуткам
Продолжительность промежутка             : 42  мс. (1,00 видеокадр)
Время предзагрузки промежутка            : 500  мс.

   
Торрент: Зарегистрирован [23 фев 2016, 19:44] Скачать торрент
Скачать торрент
О MediaGet
[ Размер 15.08 КБ / Просмотров 79 ]

Статус:
 
Приватный: Нет (DHT включён)
Размер: 1.45 ГБ (1 560 027 136 байт)
   
Аватара пользователя

Администратор
Администратор
 
Раздал: 2.33 ПБ
Скачал: 1.02 ПБ
Ратио: 2.281
Сообщения: 3723
Зарегистрирован: 07 май 2010, 17:29
Medals: 1
Лучший релиз за месяц (1)
  • Личное сообщение
  • ICQ

  • Похожие торренты
    Ответы
    Просмотры
    Последнее сообщение

Вернуться в Зарубежные фильмы (Rip's)

Кто сейчас на конференции

Зарегистрированные пользователи: bigcatwar, ванюшка

Ресурс не предоставляет электронные версии произведений, а занимается лишь коллекционированием и каталогизацией ссылок, присылаемых и публикуемых на форуме нашими читателями. Если вы являетесь правообладателем какого-либо представленного материала и не желаете чтобы ссылка на него находилась в нашем каталоге, свяжитесь с нами и мы незамедлительно удалим её. Файлы для обмена на трекере предоставлены пользователями сайта, и администрация не несёт ответственности за их содержание. Просьба не заливать файлы, защищенные авторскими правами, а также файлы нелегального содержания!
cron