Не верю, я – робот?! / OMG, I m a Robot! (2015) HDTVRip [VO] скачать торрент

Мировая классика кино, Rip, Рипы, Зарубежные фильмы

Модератор: Модераторы видео

  • Статистика раздачи
Размер: 733.33 МБ   |  Зарегистрирован: 22 фев 2016, 20:23   |   .torrent скачан: 1 раз
Сидеров: 175  [ 0 байт/сек ]     Личеров: 28  [ 0 байт/сек ]  
Список файлов : Кто скачал : Раздают : Скачивают : Кто благодарил : История : Не раздающие : Запрашивали сидеров : Внешние трекеры 
  

Не верю, я – робот?! / OMG, I m a Robot! (2015) HDTVRip [VO]

Сообщение Админ » 22 фев 2016, 20:23

Не верю, я – робот?! / OMG, I m a Robot! (2015) HDTVRip

Производство: Израиль
Жанр: Фантастика, Комедия

Режиссер: Таль Голдберг, Галь Железняк
Продюсер: Амир Манор
Актеры: Йотам Ишай, Хили Ялон, Цахи Град, Дрор Керен, Инна Беккельман, Роб Шнайдер, Нели Тагар

Описание:
Дани, инфантильный молодой человек, тяжело переживая уход подруги, решает покончить с собой, но внезапно обнаруживает, что он — робот…


Дата мировой премьеры: 6 августа 2015

Продолжительность: 01:15:06
Качество видео: HDTVRip
Перевод: Одноголосый закадровый, любительский
Озвучка / Автор перевода: Павел Морозов aka PashaUp
Вид субтитров: Вшитые, неотключаемые
Язык субтитров: Иврит

Видео: Xvid, 624х352, ~1163 Кбит/с
Аудио: MP3, 2 ch, 192 kbps, CBR
Код:
Код: Выделить всё
Общее
Полное имя                               : D:\FILMЬl\2016 MONK\Ya.Robot.2015.avi
Формат                                   : AVI
Формат/Информация                        : Audio Video Interleave
Размер файла                             : 733 Мбайт
Продолжительность                        : 1 ч. 15 м.
Общий поток                              : 1365 Кбит/сек
Программа кодирования                    : VirtualDubMod 1.5.10.2 (build 2540/release)
Библиотека кодирования                   : VirtualDubMod build 2540/release

Видео
Идентификатор                            : 0
Формат                                   : MPEG-4 Visual
Профиль формата                          : Advanced [email protected]
Параметр BVOP формата                    : 2
Параметр QPel формата                    : Нет
Параметр GMC формата                     : Без точки перехода
Параметр матрицы формата                 : Default (H.263)
Идентификатор кодека                     : XVID
Идентификатор кодека/Подсказка           : XviD
Продолжительность                        : 1 ч. 15 м.
Битрейт                                  : 1163 Кбит/сек
Ширина                                   : 624 пикселя
Высота                                   : 352 пикселя
Соотношение сторон                       : 16:9
Частота кадров                           : 25,000 кадров/сек
Цветовое пространство                    : YUV
Субдискретизация насыщенности            : 4:2:0
Битовая глубина                          : 8 бит
Тип развёртки                            : Чересстрочная
Порядок развёртки                        : Нижнее поле первое
Метод сжатия                             : С потерями
Бит/(Пиксели*Кадры)                      : 0.212
Размер потока                            : 625 Мбайт (85%)
Библиотека кодирования                   : XviD 64

Аудио
Идентификатор                            : 1
Формат                                   : MPEG Audio
Версия формата                           : Version 1
Профиль формата                          : Layer 3
Режим                                    : Joint stereo
Расширение режима                        : MS Stereo
Идентификатор кодека                     : 55
Идентификатор кодека/Подсказка           : MP3
Продолжительность                        : 1 ч. 15 м.
Вид битрейта                             : Постоянный
Битрейт                                  : 192 Кбит/сек
Каналы                                   : 2 канала
Частота                                  : 48,0 КГц
Метод сжатия                             : С потерями
Размер потока                            : 103 Мбайт (14%)
Выравнивание                             : Соединение по промежуткам
Продолжительность промежутка             : 40  мс. (1,00 видеокадр)
Время предзагрузки промежутка            : 504  мс.

Скриншоты:



Время раздачи: С 09:00 до 23:30 до 5 скачавших (до появления первых 3-5 скачавших)
   
Торрент: Зарегистрирован [22 фев 2016, 20:23] Скачать торрент
Скачать торрент
О MediaGet
[ Размер 15.14 КБ / Просмотров 66 ]

Статус:
 
Приватный: Нет (DHT включён)
Размер: 733.33 МБ (768 950 272 байт)
   
Аватара пользователя

Администратор
Администратор
 
Раздал: 2.33 ПБ
Скачал: 1.02 ПБ
Ратио: 2.281
Сообщения: 3723
Зарегистрирован: 07 май 2010, 17:29
Medals: 1
Лучший релиз за месяц (1)
  • Личное сообщение
  • ICQ

  • Похожие торренты
    Ответы
    Просмотры
    Последнее сообщение

Вернуться в Зарубежные фильмы (Rip's)

Кто сейчас на конференции

Зарегистрированные пользователи: bigcatwar, ванюшка

Ресурс не предоставляет электронные версии произведений, а занимается лишь коллекционированием и каталогизацией ссылок, присылаемых и публикуемых на форуме нашими читателями. Если вы являетесь правообладателем какого-либо представленного материала и не желаете чтобы ссылка на него находилась в нашем каталоге, свяжитесь с нами и мы незамедлительно удалим её. Файлы для обмена на трекере предоставлены пользователями сайта, и администрация не несёт ответственности за их содержание. Просьба не заливать файлы, защищенные авторскими правами, а также файлы нелегального содержания!
cron