Виктор Франкенштейн / Victor Frankenstein (2015) WEB-DLRip [H.264] скачать торрент

Мировая классика кино, Rip, Рипы, Зарубежные фильмы

Модератор: Модераторы видео

  • Статистика раздачи
Размер: 1.46 ГБ   |  Зарегистрирован: 19 фев 2016, 20:43   |   .torrent скачан: 29 раз
Сидеров: 1453  [ 0 байт/сек ]     Личеров: 127  [ 0 байт/сек ]  
Список файлов : Кто скачал : Раздают : Скачивают : Кто благодарил : История : Не раздающие : Запрашивали сидеров : Внешние трекеры 
  

Виктор Франкенштейн / Victor Frankenstein (2015) WEB-DLRip [H.264]

Сообщение Админ » 19 фев 2016, 20:43

Виктор Франкенштейн / Victor Frankenstein (2015) WEB-DLRip [H.264]

Производство: США, 20th Century Fox Film Corporation, TSG Entertainment, Moving Picture Company, Davis Entertainment
Жанр: Ужасы, Фантастика, Драма

Режиссер: Пол МакГиган
Продюсер: Джон Дэвис, Маири Бетт, Дерек Дочи
Актеры: Дэниэл Рэдклифф, Джессика Браун-Финдлэй, Бронсон Уэбб, Джеймс МакЭвой, Дэниэл Мейс, Спенсер Уидлинг, Робин Пирс, Эндрю Скотт, Каллум Тернер, Ди Ботчер

Описание:
Новый взгляд на фантастическую историю Виктора Франкенштейна, на этот раз — с точки зрения его помощника Игоря.



Рейтинг MPAA: PG-13
Возраст: 16+

Дата мировой премьеры: 10 ноября 2015
Дата премьеры в России: 26 ноября 2015, «Двадцатый Век Фокс СНГ»

Продолжительность: 01:50:24
Качество видео: WEB-DLRip
Перевод: Дублированный (iTunes)
Вид субтитров: Вшитые отключаемые
Язык субтитров: Английский (Full)

Видео: AVC/H.264, 1024x424 (2.40:1), 1507 kb/s, 23.976 fps
Аудио: 48 kHz, AC3 Dolby Digital, 3/2 (L,C,R,l,r) + LFE ch, ~384 kbps
Семпл: Скачать
Код: Выделить всё
Общее
Уникальный идентификатор                 : 187384115578713507150471572165255873078 (0x8CF8DE30A1A39323B7287BCAB881C236)
Полное имя                               : D:\Релизы\Виктор.Франкенштейн.2015.WEB-DLRip.nnm-club.mkv
Формат                                   : Matroska
Версия формата                           : Version 2
Размер файла                             : 1,46 Гбайт
Продолжительность                        : 1 ч. 50 м.
Общий поток                              : 1891 Кбит/сек
Название фильма                          : Виктор.Франкенштейн.2015.WEB-DLRip.nnm-club
Дата кодирования                         : UTC 2016-02-19 04:54:19
Программа кодирования                    : mkvmerge v8.3.0 ('Over the Horizon') 64bit
Библиотека кодирования                   : libebml v1.3.1 + libmatroska v1.4.2

Видео
Идентификатор                            : 1
Формат                                   : AVC
Формат/Информация                        : Advanced Video Codec
Профиль формата                          :
Параметр CABAC формата                   : Да
Параметр ReFrames формата                : 12 кадров
Идентификатор кодека                     : V_MPEG4/ISO/AVC
Продолжительность                        : 1 ч. 50 м.
Битрейт                                  : 1507 Кбит/сек
Ширина                                   : 1024 пикселя
Высота                                   : 424 пикселя
Соотношение сторон                       : 2,40:1
Режим частоты кадров                     : Постоянный
Частота кадров                           : 23,976 кадра/сек
Цветовое пространство                    : YUV
Субдискретизация насыщенности            : 4:2:0
Битовая глубина                          : 8 бит
Тип развёртки                            : Прогрессивная
Бит/(Пиксели*Кадры)                      : 0.145
Размер потока                            : 1,13 Гбайт (78%)
Заголовок                                : Виктор.Франкенштейн.2015.WEB-DLRip.nnm-club
Библиотека кодирования                   : x264 core 146 r2538 121396c
Настройки программы                      : cabac=1 / ref=12 / deblock=1:-3:-3 / analyse=0x3:0x113 / me=umh / subme=11 / psy=1 / psy_rd=1.00:0.00 / mixed_ref=1 / me_range=48 / chroma_me=1 / trellis=2 / 8x8dct=1 / cqm=0 / deadzone=21,11 / fast_pskip=0 / chroma_qp_offset=-2 / threads=12 / lookahead_threads=3 / sliced_threads=0 / nr=0 / decimate=1 / interlaced=0 / bluray_compat=0 / constrained_intra=0 / bframes=13 / b_pyramid=2 / b_adapt=2 / b_bias=0 / direct=3 / weightb=1 / open_gop=0 / weightp=2 / keyint=240 / keyint_min=23 / scenecut=40 / intra_refresh=0 / rc_lookahead=40 / rc=2pass / mbtree=1 / bitrate=1507 / ratetol=1.0 / qcomp=0.60 / qpmin=0 / qpmax=69 / qpstep=4 / cplxblur=20.0 / qblur=0.5 / vbv_maxrate=14000 / vbv_bufsize=14000 / nal_hrd=none / filler=0 / ip_ratio=1.40 / aq=1:1.00
Default                                  : Да
Forced                                   : Нет

Аудио
Идентификатор                            : 2
Формат                                   : AC-3
Формат/Информация                        : Audio Coding 3
Расширение режима                        : CM (complete main)
Параметр Endianness формата              : Big
Идентификатор кодека                     : A_AC3
Продолжительность                        : 1 ч. 50 м.
Вид битрейта                             : Постоянный
Битрейт                                  : 384 Кбит/сек
Каналы                                   : 6 каналов
Расположение каналов                     : Front: L C R, Side: L R, LFE
Частота                                  : 48,0 КГц
Метод сжатия                             : С потерями
Размер потока                            : 303 Мбайт (20%)
Заголовок                                : iTunes
Язык                                     : Russian
Default                                  : Да
Forced                                   : Нет

Текст
Идентификатор                            : 3
Формат                                   : UTF-8
Идентификатор кодека                     : S_TEXT/UTF8
Идентификатор кодека/Информация          : UTF-8 Plain Text
Заголовок                                : Full
Язык                                     : English
Default                                  : Нет
Forced                                   : Нет

Меню
00:00:00.000                             : en:1
00:04:06.000                             : en:2
00:08:05.000                             : en:3
00:11:13.000                             : en:4
00:15:18.000                             : en:5
00:18:56.000                             : en:6
00:22:24.000                             : en:7
00:26:04.000                             : en:8
00:28:56.000                             : en:9
00:31:59.000                             : en:10
00:35:58.000                             : en:11
00:41:07.000                             : en:12
00:46:13.000                             : en:13
00:51:44.000                             : en:14
00:56:38.000                             : en:15
00:59:50.000                             : en:16
01:02:32.000                             : en:17
01:06:52.000                             : en:18
01:11:19.000                             : en:19
01:15:08.000                             : en:20
01:18:04.000                             : en:21
01:21:00.000                             : en:22
01:25:14.000                             : en:23
01:28:11.000                             : en:24
01:33:28.000                             : en:25
01:37:44.000                             : en:26
01:41:25.000                             : en:27
01:43:27.000                             : en:28

Скриншоты:

Время раздачи: 24/7 (до появления первых 3-5 скачавших)
   
Торрент: Зарегистрирован [19 фев 2016, 20:43] Скачать торрент
Скачать торрент
О MediaGet
[ Размер 15.34 КБ / Просмотров 150 ]

Статус:
 
Приватный: Нет (DHT включён)
Размер: 1.46 ГБ (1 565 774 210 байт)
   
Аватара пользователя

Администратор
Администратор
 
Раздал: 2.33 ПБ
Скачал: 1.02 ПБ
Ратио: 2.281
Сообщения: 3723
Зарегистрирован: 07 май 2010, 17:29
Medals: 1
Лучший релиз за месяц (1)
  • Личное сообщение
  • ICQ

  • Похожие торренты
    Ответы
    Просмотры
    Последнее сообщение

Вернуться в Зарубежные фильмы (Rip's)

Кто сейчас на конференции

Зарегистрированные пользователи: bigcatwar, ванюшка

Ресурс не предоставляет электронные версии произведений, а занимается лишь коллекционированием и каталогизацией ссылок, присылаемых и публикуемых на форуме нашими читателями. Если вы являетесь правообладателем какого-либо представленного материала и не желаете чтобы ссылка на него находилась в нашем каталоге, свяжитесь с нами и мы незамедлительно удалим её. Файлы для обмена на трекере предоставлены пользователями сайта, и администрация не несёт ответственности за их содержание. Просьба не заливать файлы, защищенные авторскими правами, а также файлы нелегального содержания!
cron