Допинг / The Program (2015) BDRip [H.264 / 720p] скачать торрент

Мировая классика кино, Rip, Рипы, Зарубежные фильмы

Модератор: Модераторы видео

  • Статистика раздачи
Размер: 4.94 ГБ   |  Зарегистрирован: 19 фев 2016, 01:31   |   .torrent скачан: 11 раз
Сидеров: 0  [ 0 байт/сек ]     Личеров: 0  [ 0 байт/сек ]  
Список файлов : Кто скачал : Раздают : Скачивают : Кто благодарил : История : Не раздающие : Запрашивали сидеров : Внешние трекеры 
  

Допинг / The Program (2015) BDRip [H.264 / 720p]

Сообщение Админ » 19 фев 2016, 01:31

Допинг / The Program (2015) BDRip [H.264 / 720p]

«Winning was in his blood»

Производство: Великобритания, Франция / Anton Capital Entertainment (ACE), Studio Canal, Working Title Films
Жанр: Драма, биография, спорт

Режиссер: Стивен Фрирз
Актеры: Бен Фостер, Крис О Дауд, Джесси Племонс, Ли Пейс, Дастин Хоффман, Лаура Доннелли, Брайан Гринберг, Элейн Кэссиди, Гийом Кане, Дени Меноше

Описание:
Ирландский спортивный журналист убежден в том, что Лэнс Армстронг во время своих победных выступлений на Тур де Франс использовал запрещенные вещества. С этими убеждениями, он начинает искать доказательства, которые разоблачат Армстронга.


Рейтинг MPAA: R (лицам до 17 лет обязательно присутствие взрослого)
Дата мировой премьеры: 13 сентября 2015
Дата премьеры в России: 18 февраля 2016

Продолжительность: 01:43:06
Качество видео: BDRip (720р)
Перевод: Многоголосый закадровый, профессиональный (iTunes)
Язык субтитров: Английский
Вид субтитров: Вшитые, отключаемые

Видео: AVC/H.264, 1280x536, ~5831 Kbps
Аудио: AC3, 6 ch, 384 kbps, CBR - Русский
Аудио: AC3, 6 ch, 640 kbps, CBR - Английский
Код:
Код: Выделить всё
Общее
Уникальный идентификатор                 : 231422486610557247486255916305629529106 (0xAE1A59846AE996DDAB786C495A7F4412)
Полное имя                               : F:\торрент файлы\DOpinG.2O15.BDRip.72OP.mkv
Формат                                   : Matroska
Версия формата                           : Version 2
Размер файла                             : 4,94 Гбайт
Продолжительность                        : 1 ч. 43 м.
Общий поток                              : 6856 Кбит/сек
Дата кодирования                         : UTC 2016-02-17 19:08:31
Программа кодирования                    : mkvmerge v8.3.0 ('Over the Horizon') 64bit
Библиотека кодирования                   : libebml v1.3.1 + libmatroska v1.4.2

Видео
Идентификатор                            : 1
Формат                                   : AVC
Формат/Информация                        : Advanced Video Codec
Профиль формата                          :
Параметр CABAC формата                   : Да
Параметр ReFrames формата                : 12 кадров
Идентификатор кодека                     : V_MPEG4/ISO/AVC
Продолжительность                        : 1 ч. 43 м.
Битрейт                                  : 5831 Кбит/сек
Ширина                                   : 1280 пикселей
Высота                                   : 536 пикселей
Соотношение сторон                       : 2,40:1
Режим частоты кадров                     : Постоянный
Частота кадров                           : 24,000 кадра/сек
Цветовое пространство                    : YUV
Субдискретизация насыщенности            : 4:2:0
Битовая глубина                          : 8 бит
Тип развёртки                            : Прогрессивная
Бит/(Пиксели*Кадры)                      : 0.354
Размер потока                            : 4,20 Гбайт (85%)
Библиотека кодирования                   : x264 core 148 r2638+53 bb29004 t_mod_Custom [[email protected] X86_64]
Настройки программы                      : cabac=1 / ref=12 / deblock=1:-3:-3 / analyse=0x3:0x133 / me=umh / subme=11 / psy=1 / fade_compensate=0.00 / psy_rd=1.05:0.00 / mixed_ref=1 / me_range=48 / chroma_me=1 / trellis=2 / 8x8dct=1 / cqm=0 / deadzone=21,11 / fast_pskip=1 / chroma_qp_offset=-2 / threads=8 / lookahead_threads=1 / sliced_threads=0 / nr=0 / decimate=0 / interlaced=0 / bluray_compat=0 / constrained_intra=0 / fgo=0 / bframes=8 / b_pyramid=2 / b_adapt=2 / b_bias=0 / direct=3 / weightb=1 / open_gop=0 / weightp=2 / keyint=250 / keyint_min=24 / scenecut=40 / intra_refresh=0 / rc_lookahead=150 / rc=crf / mbtree=0 / crf=15.2000 / qcomp=0.60 / qpmin=0:0:0 / qpmax=69:69:69 / qpstep=4 / vbv_maxrate=50000 / vbv_bufsize=62500 / crf_max=0.0 / nal_hrd=none / filler=0 / ip_ratio=1.40 / pb_ratio=1.30 / aq=3:0.85 / aq-sensitivity=10.00 / aq-factor=1.00:1.00:1.00 / aq2=0 / aq3=0 / zones=1192,1283,crf=11.7/112208,112234,crf=11.7/137644,137847,crf=12.5
Язык                                     : English
Default                                  : Да
Forced                                   : Нет

Аудио #1
Идентификатор                            : 2
Формат                                   : AC-3
Формат/Информация                        : Audio Coding 3
Расширение режима                        : CM (complete main)
Параметр Endianness формата              : Big
Идентификатор кодека                     : A_AC3
Продолжительность                        : 1 ч. 43 м.
Вид битрейта                             : Постоянный
Битрейт                                  : 384 Кбит/сек
Каналы                                   : 6 каналов
Расположение каналов                     : Front: L C R, Side: L R, LFE
Частота                                  : 48,0 КГц
Частота кадров                           : 31,250 кадров/сек (1536 spf)
Метод сжатия                             : С потерями
Задержка видео                           : 1 с. 0 мс.
Размер потока                            : 283 Мбайт (6%)
Default                                  : Да
Forced                                   : Нет

Аудио #2
Идентификатор                            : 3
Формат                                   : AC-3
Формат/Информация                        : Audio Coding 3
Расширение режима                        : CM (complete main)
Параметр Endianness формата              : Big
Идентификатор кодека                     : A_AC3
Продолжительность                        : 1 ч. 43 м.
Вид битрейта                             : Постоянный
Битрейт                                  : 640 Кбит/сек
Каналы                                   : 6 каналов
Расположение каналов                     : Front: L C R, Side: L R, LFE
Частота                                  : 48,0 КГц
Частота кадров                           : 31,250 кадров/сек (1536 spf)
Метод сжатия                             : С потерями
Размер потока                            : 472 Мбайт (9%)
Язык                                     : English
Default                                  : Нет
Forced                                   : Нет

Текст #1
Идентификатор                            : 4
Формат                                   : UTF-8
Идентификатор кодека                     : S_TEXT/UTF8
Идентификатор кодека/Информация          : UTF-8 Plain Text
Продолжительность                        : 51 м.
Битрейт                                  : 1 бит/сек
Count of elements                        : 16
Размер потока                            : 505 байт (0%)
Заголовок                                : Forced
Язык                                     : English
Default                                  : Нет
Forced                                   : Нет

Текст #2
Идентификатор                            : 5
Формат                                   : UTF-8
Идентификатор кодека                     : S_TEXT/UTF8
Идентификатор кодека/Информация          : UTF-8 Plain Text
Продолжительность                        : 1 ч. 33 м.
Битрейт                                  : 68 бит/сек
Count of elements                        : 1257
Размер потока                            : 47,2 Кбайт (0%)
Язык                                     : English
Default                                  : Нет
Forced                                   : Нет

Текст #3
Идентификатор                            : 6
Формат                                   : UTF-8
Идентификатор кодека                     : S_TEXT/UTF8
Идентификатор кодека/Информация          : UTF-8 Plain Text
Продолжительность                        : 1 ч. 36 м.
Битрейт                                  : 71 бит/сек
Count of elements                        : 1372
Размер потока                            : 50,8 Кбайт (0%)
Заголовок                                : SDH
Язык                                     : English
Default                                  : Нет
Forced                                   : Нет

Меню
00:00:00.000                             : en:Chapter 1
00:11:00.250                             : en:Chapter 2
00:21:19.792                             : en:Chapter 3
00:31:22.708                             : en:Chapter 4
00:41:50.667                             : en:Chapter 5
00:51:01.208                             : en:Chapter 6
01:00:15.917                             : en:Chapter 7
01:11:34.208                             : en:Chapter 8
01:21:03.125                             : en:Chapter 9
01:30:00.833                             : en:Chapter 10
01:35:45.458                             : en:Chapter 11

Скриншоты:



Время раздачи: 24/7 (до появления первых 3-5 скачавших)
   
Торрент: Зарегистрирован [19 фев 2016, 01:31] Скачать торрент
Скачать торрент
О MediaGet
[ Размер 25.36 КБ / Просмотров 54 ]

Статус:
 
Приватный: Нет (DHT включён)
Размер: 4.94 ГБ (5 301 532 764 байт)
   
Аватара пользователя

Администратор
Администратор
 
Раздал: 2.33 ПБ
Скачал: 1.02 ПБ
Ратио: 2.281
Сообщения: 3723
Зарегистрирован: 07 май 2010, 17:29
Medals: 1
Лучший релиз за месяц (1)
  • Личное сообщение
  • ICQ

  • Похожие торренты
    Ответы
    Просмотры
    Последнее сообщение

Вернуться в Зарубежные фильмы (Rip's)

Кто сейчас на конференции

Зарегистрированные пользователи: bigcatwar, ванюшка

Ресурс не предоставляет электронные версии произведений, а занимается лишь коллекционированием и каталогизацией ссылок, присылаемых и публикуемых на форуме нашими читателями. Если вы являетесь правообладателем какого-либо представленного материала и не желаете чтобы ссылка на него находилась в нашем каталоге, свяжитесь с нами и мы незамедлительно удалим её. Файлы для обмена на трекере предоставлены пользователями сайта, и администрация не несёт ответственности за их содержание. Просьба не заливать файлы, защищенные авторскими правами, а также файлы нелегального содержания!
cron