Допинг / The Program (2015) BDRip скачать торрент

Мировая классика кино, Rip, Рипы, Зарубежные фильмы

Модератор: Модераторы видео

  • Статистика раздачи
Размер: 1.41 ГБ   |  Зарегистрирован: 19 фев 2016, 01:31   |   .torrent скачан: 6 раз
Сидеров: 329  [ 0 байт/сек ]     Личеров: 8  [ 0 байт/сек ]  
Список файлов : Кто скачал : Раздают : Скачивают : Кто благодарил : История : Не раздающие : Запрашивали сидеров : Внешние трекеры 
  

Допинг / The Program (2015) BDRip

Сообщение Админ » 19 фев 2016, 01:31

Допинг / The Program (2015) BDRip

Производство: Великобритания, Франция
Жанр: Драма, биография, спорт

Режиссер: Стивен Фрирз
Продюсер: Тим Беван, Эрик Феллнер, Трэйси Сиуорд
Актеры: Бен Фостер, Крис О Дауд, Джесси Племонс, Ли Пейс, Дастин Хоффман, Лаура Доннелли, Брайан Гринберг, Элейн Кэссиди, Гийом Кане, Дени Меноше

Описание:
Ирландский спортивный журналист убежден в том, что Лэнс Армстронг во время своих победных выступлений на Тур де Франс использовал запрещенные вещества. С этими убеждениями, он начинает искать доказательства, которые разоблачат Армстронга.


Дата мировой премьеры: 13 сентября 2015
Дата премьеры в России: 18 февраля 2016

Релиз от: TW17TER
Продолжительность: 01:43:05
Качество видео: BDRip
Перевод: Многоголосый закадровый, профессиональный (iTunes)
Субтитры: отсутствуют

Видео: Xvid, 720x304, ~1570 kbps
Аудио: AC3, 6 ch, 384 kbps, CBR
Семпл: Скачать
Код:
Код: Выделить всё
Формат : AVI
Формат/Информация : Audio Video Interleave
Размер файла : 1,41 Гбайт
Продолжительность : 1 ч. 43 м.
Общий поток : 1963 Кбит/сек
Название фильма : Doping.2015.P.BDRip_by_Twi7ter
Режиссёр : Twi7ter
Жанр : Drama/Sport
Программа кодирования : VirtualDubMod 1.5.10.3 (build 2550/release)
Формат оригинала/Имя : Movie

Видео
Идентификатор : 0
Формат : MPEG-4 Visual
Профиль формата : Advanced [email protected]
Параметр BVOP формата : 2
Параметр QPel формата : Нет
Параметр GMC формата : Без точки перехода
Параметр матрицы формата : Выборочная
Идентификатор кодека : XVID
Идентификатор кодека/Подсказка : XviD
Продолжительность : 1 ч. 43 м.
Битрейт : 1570 Кбит/сек
Ширина : 720 пикселей
Высота : 304 пикселя
Соотношение сторон : 2,35:1
Частота кадров : 24,000 кадра/сек
Цветовое пространство : YUV
Субдискретизация насыщенности : 4:2:0
Битовая глубина : 8 бит
Тип развёртки : Прогрессивная
Метод сжатия : С потерями
Бит/(Пиксели*Кадры) : 0.299
Размер потока : 1,13 Гбайт (80%)
Библиотека кодирования : XviD 73

Аудио
Идентификатор : 1
Формат : AC-3
Формат/Информация : Audio Coding 3
Расширение режима : CM (complete main)
Параметр Endianness формата : Big
Идентификатор кодека : 2000
Продолжительность : 1 ч. 43 м.
Вид битрейта : Постоянный
Битрейт : 384 Кбит/сек
Каналы : 6 каналов
Расположение каналов : Front: L C R, Side: L R, LFE
Частота : 48,0 КГц
Метод сжатия : С потерями
Задержка видео : 1 с. 0 мс.
Размер потока : 283 Мбайт (20%)
Выравнивание : Разделение по промежуткам
Продолжительность промежутка : 42 мс. (1,00 видеокадр)
Время предзагрузки промежутка : 500 мс.

Скриншоты:



Время раздачи: По мере возможности..(до появления первых 3-5 скачавших)
   
Торрент: Зарегистрирован [19 фев 2016, 01:31] Скачать торрент
Скачать торрент
О MediaGet
[ Размер 14.91 КБ / Просмотров 60 ]

Статус:
 
Приватный: Нет (DHT включён)
Размер: 1.41 ГБ (1 517 731 840 байт)
   
Аватара пользователя

Администратор
Администратор
 
Раздал: 2.33 ПБ
Скачал: 1.02 ПБ
Ратио: 2.281
Сообщения: 3723
Зарегистрирован: 07 май 2010, 17:29
Medals: 1
Лучший релиз за месяц (1)
  • Личное сообщение
  • ICQ

  • Похожие торренты
    Ответы
    Просмотры
    Последнее сообщение

Вернуться в Зарубежные фильмы (Rip's)

Кто сейчас на конференции

Зарегистрированные пользователи: bigcatwar, ванюшка

Ресурс не предоставляет электронные версии произведений, а занимается лишь коллекционированием и каталогизацией ссылок, присылаемых и публикуемых на форуме нашими читателями. Если вы являетесь правообладателем какого-либо представленного материала и не желаете чтобы ссылка на него находилась в нашем каталоге, свяжитесь с нами и мы незамедлительно удалим её. Файлы для обмена на трекере предоставлены пользователями сайта, и администрация не несёт ответственности за их содержание. Просьба не заливать файлы, защищенные авторскими правами, а также файлы нелегального содержания!
cron