Ярость: Смертная казнь / Rampage: Capital Punishment (2014) HDRip [AVO] скачать торрент

Мировая классика кино, Rip, Рипы, Зарубежные фильмы

Модератор: Модераторы видео

  • Статистика раздачи
Размер: 1.46 ГБ   |  Зарегистрирован: 19 фев 2016, 00:34   |   .torrent скачан: 14 раз
Сидеров: 902  [ 0 байт/сек ]     Личеров: 89  [ 0 байт/сек ]  
Список файлов : Кто скачал : Раздают : Скачивают : Кто благодарил : История : Не раздающие : Запрашивали сидеров : Внешние трекеры 
  

Ярость: Смертная казнь / Rampage: Capital Punishment (2014) HDRip [AVO]

Сообщение Админ » 19 фев 2016, 00:34

Ярость: Смертная казнь / Rampage: Capital Punishment (2014) HDRip

Производство: Канада, Германия
Жанр: боевик, Триллер

Режиссер: Уве Болл
Актеры: Брендан Флетчер, Михаэлла Манн, Нэйтан Лефельдт, Брюс Блэйн, Майк Допуд, Локлин Манро, Михаэла Росс, Джон Сэмпсон, Дэн Захари, Мэтт Фрюэр

Описание:
Билл Уильямсон наносит новый удар. Спустя два года он берет в заложники персонал телеканала с целью воплотить еще один гениальный план…


Дата мировой премьеры: 19 июля 2014

Релиз от: K.E.N (NNM-CLUB)
Продолжительность: 01:32:53
Качество видео: HDRip
Перевод: Авторский (одноголосый, закадровый) А.Киреев
Субтитры: Отсутствуют
ВНИМАНИЕ! Нецензурная лексика

Видео: 720x400 (1.80:1), 23.976 fps, XviD build 73 ~1793 kbps, 0.26 bit/pixel
Аудио: AC3 Dolby Digital, 3/2 (L,C,R,l,r) + LFE ch, 48 kHz, ~448 kbps
За перевод спасибо Переулку Переводмана.
Озвучка Антона Киреева по переводу Фёдора Погорелова доступна благодаря CHIPaev. Работа со звуком Переводман
Код:
Код: Выделить всё
Формат                                   : AVI
Формат/Информация                        : Audio Video Interleave
Размер файла                             : 1,46 Гбайт
Продолжительность                        : 1 ч. 32 м.
Общий поток                              : 2251 Кбит/сек
Программа кодирования                    : VirtualDubMod 1.5.10.3 | [url=http://www.virtualdub-fr.org]www.virtualdub-fr.org[/url] || (build 2550/release)
Библиотека кодирования                   : VirtualDubMod build 2550/release

Видео
Идентификатор                            : 0
Формат                                   : MPEG-4 Visual
Профиль формата                          : Advanced [email protected]
Параметр BVOP формата                    : 1
Параметр QPel формата                    : Нет
Параметр GMC формата                     : Без точки перехода
Параметр матрицы формата                 : Выборочная
Идентификатор кодека                     : XVID
Идентификатор кодека/Подсказка           : XviD
Продолжительность                        : 1 ч. 32 м.
Битрейт                                  : 1794 Кбит/сек
Ширина                                   : 720 пикселей
Высота                                   : 400 пикселей
Соотношение сторон                       : 16:9
Частота кадров                           : 23,976 кадра/сек
Цветовое пространство                    : YUV
Субдискретизация насыщенности            : 4:2:0
Битовая глубина                          : 8 бит
Тип развёртки                            : Прогрессивная
Метод сжатия                             : С потерями
Бит/(Пиксели*Кадры)                      : 0.260
Размер потока                            : 1,16 Гбайт (80%)
Библиотека кодирования                   : XviD 73

Аудио
Идентификатор                            : 1
Формат                                   : AC-3
Формат/Информация                        : Audio Coding 3
Расширение режима                        : CM (complete main)
Параметр Endianness формата              : Big
Идентификатор кодека                     : 2000
Продолжительность                        : 1 ч. 32 м.
Вид битрейта                             : Постоянный
Битрейт                                  : 448 Кбит/сек
Каналы                                   : 6 каналов
Расположение каналов                     : Front: L C R, Side: L R, LFE
Частота                                  : 48,0 КГц
Битовая глубина                          : 16 бит
Метод сжатия                             : С потерями
Размер потока                            : 298 Мбайт (20%)
Выравнивание                             : Разделение по промежуткам
Продолжительность промежутка             : 42  мс. (1,00 видеокадр)
Время предзагрузки промежутка            : 500  мс.

Скриншоты:



Время раздачи: до 5-ти скачавших (до появления первых 3-5 скачавших)
   
Торрент: Зарегистрирован [19 фев 2016, 00:34] Скачать торрент
Скачать торрент
О MediaGet
[ Размер 15.35 КБ / Просмотров 73 ]

Статус:
 
Приватный: Нет (DHT включён)
Размер: 1.46 ГБ (1 568 182 272 байт)
   
Аватара пользователя

Администратор
Администратор
 
Раздал: 2.33 ПБ
Скачал: 1.02 ПБ
Ратио: 2.281
Сообщения: 3723
Зарегистрирован: 07 май 2010, 17:29
Medals: 1
Лучший релиз за месяц (1)
  • Личное сообщение
  • ICQ

  • Похожие торренты
    Ответы
    Просмотры
    Последнее сообщение

Вернуться в Зарубежные фильмы (Rip's)

Кто сейчас на конференции

Зарегистрированные пользователи: bigcatwar

Ресурс не предоставляет электронные версии произведений, а занимается лишь коллекционированием и каталогизацией ссылок, присылаемых и публикуемых на форуме нашими читателями. Если вы являетесь правообладателем какого-либо представленного материала и не желаете чтобы ссылка на него находилась в нашем каталоге, свяжитесь с нами и мы незамедлительно удалим её. Файлы для обмена на трекере предоставлены пользователями сайта, и администрация не несёт ответственности за их содержание. Просьба не заливать файлы, защищенные авторскими правами, а также файлы нелегального содержания!
cron