Тёмная паутина / Darkweb (2016) HDRip [VO] скачать торрент

Мировая классика кино, Rip, Рипы, Зарубежные фильмы

Модератор: Модераторы видео

  • Статистика раздачи
Размер: 1.39 ГБ   |  Зарегистрирован: 19 фев 2016, 00:33   |   .torrent скачан: 2 раз
Сидеров: 129  [ 0 байт/сек ]     Личеров: 11  [ 0 байт/сек ]  
Список файлов : Кто скачал : Раздают : Скачивают : Кто благодарил : История : Не раздающие : Запрашивали сидеров : Внешние трекеры 
  

Тёмная паутина / Darkweb (2016) HDRip [VO]

Сообщение Админ » 19 фев 2016, 00:33

Тёмная паутина / Darkweb (2016) HDRip [VO]

Производство: Франция / A.A.A.
Жанр: боевик, Триллер

Режиссер: Бруно Вассенат
Актеры: Оливье Грюнер, Тони Харрисон, Ибрахима Кейта, Винсент Паризи, Тристан Робин и др.

Описание:
Оказывается кроме хорошо знакомого нам интернета существует огромная паутина, где вертятся огромные деньги и идет своя жизнь. Слышали ли вы о Тёмной паутине? Это сетевые сегменты, вообще не подключённые к сети Интернет... Таинственные люди создали садистскую группу, похищая молодых девушек для участия в охоте на индюшек в качестве добычи, при этом они снимают всё на видео. Миллионеры, жаждущие крови, должны купить право на просмотр в темной паутине. Каков же исход охоты?



Продолжительность: 01:29:38
Качество видео: HDRip
Перевод: Одноголосый закадровый, любительский ( Васька Куролесов по субтитрам Enigma)
Субтитры: Отсутствуют

Видео: Xvid, 720x304, ~1830 Kbps
Аудио: AC3, 6 ch, 384 Kbps, CBR
Код:
Код: Выделить всё
Общее
Полное имя                               : F:\торрент файлы\Darkweb.2016.HDRip_KypoJIecoB.avi
Формат                                   : AVI
Формат/Информация                        : Audio Video Interleave
Размер файла                             : 1,39 Гбайт
Продолжительность                        : 1 ч. 29 м.
Общий поток                              : 2223 Кбит/сек

Видео
Идентификатор                            : 0
Формат                                   : MPEG-4 Visual
Профиль формата                          : Advanced [email protected]
Параметр BVOP формата                    : 2
Параметр QPel формата                    : Нет
Параметр GMC формата                     : Без точки перехода
Параметр матрицы формата                 : Default (H.263)
Идентификатор кодека                     : XVID
Идентификатор кодека/Подсказка           : XviD
Продолжительность                        : 1 ч. 29 м.
Битрейт                                  : 1830 Кбит/сек
Ширина                                   : 720 пикселей
Высота                                   : 304 пикселя
Соотношение сторон                       : 2,35:1
Частота кадров                           : 24,000 кадра/сек
Цветовое пространство                    : YUV
Субдискретизация насыщенности            : 4:2:0
Битовая глубина                          : 8 бит
Тип развёртки                            : Прогрессивная
Метод сжатия                             : С потерями
Бит/(Пиксели*Кадры)                      : 0.348
Размер потока                            : 1,15 Гбайт (82%)
Библиотека кодирования                   : XviD 66

Аудио
Идентификатор                            : 1
Формат                                   : AC-3
Формат/Информация                        : Audio Coding 3
Расширение режима                        : CM (complete main)
Параметр Endianness формата              : Big
Идентификатор кодека                     : 2000
Продолжительность                        : 1 ч. 29 м.
Вид битрейта                             : Постоянный
Битрейт                                  : 384 Кбит/сек
Каналы                                   : 6 каналов
Расположение каналов                     : Front: L C R, Side: L R, LFE
Частота                                  : 48,0 КГц
Частота кадров                           : 31,250 кадров/сек (1536 spf)
Метод сжатия                             : С потерями
Размер потока                            : 246 Мбайт (17%)
Выравнивание                             : Разделение по промежуткам
Продолжительность промежутка             : 42  мс. (1,00 видеокадр)
Время предзагрузки промежутка            : 500  мс.

Скриншоты:



Время раздачи: 24/7 (до появления первых 3-5 скачавших)
   
Торрент: Зарегистрирован [19 фев 2016, 00:33] Скачать торрент
Скачать торрент
О MediaGet
[ Размер 14.61 КБ / Просмотров 80 ]

Статус:
 
Приватный: Нет (DHT включён)
Размер: 1.39 ГБ (1 494 731 622 байт)
   
Аватара пользователя

Администратор
Администратор
 
Раздал: 2.33 ПБ
Скачал: 1.02 ПБ
Ратио: 2.281
Сообщения: 3719
Зарегистрирован: 07 май 2010, 17:29
Medals: 1
Лучший релиз за месяц (1)
  • Личное сообщение
  • ICQ

  • Похожие торренты
    Ответы
    Просмотры
    Последнее сообщение

Вернуться в Зарубежные фильмы (Rip's)

Кто сейчас на конференции

Зарегистрированные пользователи: нет зарегистрированных пользователей

Ресурс не предоставляет электронные версии произведений, а занимается лишь коллекционированием и каталогизацией ссылок, присылаемых и публикуемых на форуме нашими читателями. Если вы являетесь правообладателем какого-либо представленного материала и не желаете чтобы ссылка на него находилась в нашем каталоге, свяжитесь с нами и мы незамедлительно удалим её. Файлы для обмена на трекере предоставлены пользователями сайта, и администрация не несёт ответственности за их содержание. Просьба не заливать файлы, защищенные авторскими правами, а также файлы нелегального содержания!
cron