Новые приключения Аладдина / Les nouvelles aventures d'Aladin (2015) HDRip [Line] скачать торрент

Мировая классика кино, Rip, Рипы, Зарубежные фильмы

Модератор: Модераторы видео

  • Статистика раздачи
Размер: 1.45 ГБ   |  Зарегистрирован: 17 фев 2016, 20:50   |   .torrent скачан: 12 раз
Сидеров: 778  [ 0 байт/сек ]     Личеров: 249  [ 0 байт/сек ]  
Список файлов : Кто скачал : Раздают : Скачивают : Кто благодарил : История : Не раздающие : Запрашивали сидеров : Внешние трекеры 
  

Новые приключения Аладдина / Les nouvelles aventures d'Aladin (2015) HDRip [Line]

Сообщение Админ » 17 фев 2016, 20:50

Новые приключения Аладдина / Les nouvelles aventures d'Aladin (2015) HDRip

Производство: Франция, Бельгия
Жанр: Комедия

Режиссер: Артур Бензакен
Продюсер: Жером Сейду, Дэниэл Торджман, Джонатан Блюменталь
Актеры: Кев Адамс, Жан-Поль Рув, Ванесса Гуид, Уилльям Лебхил, Одри Лами, Артур Бензакен, Эрик Жюдор, Мишель Блан, Рамзи Бедиа, Надер Буссандель

Описание:
Думаете, вы знаете историю про Аладдина? Как бы не так, оказывается у этой истории еще много неизвестных страниц. Мы расскажем вам эту сказку совершенно по-новому, добро пожаловать в самое сердце Багдада — города тысячи сокровищ, где на улицах летают ковры-самолеты, колдуны предлагают зелья для омоложения, а в замке томится принцесса, которая иногда тайком выбирается в город, где как раз и орудует находчивый и предприимчивый воришка по имени Аладдин…


Дата мировой премьеры: 29 августа 2015
Дата премьеры в России: 11 февраля 2016, «Наше Кино»

Продолжительность: 01:45:45
Качество видео: HDRip
Перевод: Дублированный (Чистый звук)
Субтитры: отсутствуют

Видео: Xvid, 720x304, ~1763 Kbps
Аудио: AC3, 2 ch, 192 kbps, CBR
Семпл: Скачать
Код:
Код: Выделить всё
Формат : AVI
Формат/Информация : Audio Video Interleave
Размер файла : 1,45 Гбайт
Продолжительность : 1 ч. 45 м.
Общий поток : 1965 Кбит/сек
Программа кодирования : VirtualDubMod 1.5.10.3 | (build 2550/release)
Библиотека кодирования : VirtualDubMod build 2550/release

Видео
Идентификатор : 0
Формат : MPEG-4 Visual
Профиль формата : Advanced [email protected]
Параметр BVOP формата : 1
Параметр QPel формата : Нет
Параметр GMC формата : Без точки перехода
Параметр матрицы формата : Выборочная
Идентификатор кодека : XVID
Идентификатор кодека/Подсказка : XviD
Продолжительность : 1 ч. 45 м.
Битрейт : 1763 Кбит/сек
Ширина : 720 пикселей
Высота : 304 пикселя
Соотношение сторон : 2,35:1
Частота кадров : 24,000 кадра/сек
Цветовое пространство : YUV
Субдискретизация насыщенности : 4:2:0
Битовая глубина : 8 бит
Тип развёртки : Прогрессивная
Метод сжатия : С потерями
Бит/(Пиксели*Кадры) : 0.336
Размер потока : 1,30 Гбайт (90%)
Библиотека кодирования : XviD 73

Аудио
Идентификатор : 1
Формат : AC-3
Формат/Информация : Audio Coding 3
Расширение режима : CM (complete main)
Параметр Endianness формата : Big
Идентификатор кодека : 2000
Продолжительность : 1 ч. 45 м.
Вид битрейта : Постоянный
Битрейт : 192 Кбит/сек
Каналы : 2 канала
Расположение каналов : Front: L R
Частота : 48,0 КГц
Метод сжатия : С потерями
Размер потока : 145 Мбайт (10%)
Выравнивание : Разделение по промежуткам
Продолжительность промежутка : 42 мс. (1,00 видеокадр)
Время предзагрузки промежутка : 500 мс.

Скриншоты:



Время раздачи: По мере возможности..(до появления первых 3-5 скачавших)
   
Торрент: Зарегистрирован [17 фев 2016, 20:50] Скачать торрент
Скачать торрент
О MediaGet
[ Размер 15.38 КБ / Просмотров 128 ]

Статус:
 
Приватный: Нет (DHT включён)
Размер: 1.45 ГБ (1 558 134 784 байт)
   
Аватара пользователя

Администратор
Администратор
 
Раздал: 2.33 ПБ
Скачал: 1.02 ПБ
Ратио: 2.281
Сообщения: 3723
Зарегистрирован: 07 май 2010, 17:29
Medals: 1
Лучший релиз за месяц (1)
  • Личное сообщение
  • ICQ

  • Похожие торренты
    Ответы
    Просмотры
    Последнее сообщение

Вернуться в Зарубежные фильмы (Rip's)

Кто сейчас на конференции

Зарегистрированные пользователи: bigcatwar, ванюшка

Ресурс не предоставляет электронные версии произведений, а занимается лишь коллекционированием и каталогизацией ссылок, присылаемых и публикуемых на форуме нашими читателями. Если вы являетесь правообладателем какого-либо представленного материала и не желаете чтобы ссылка на него находилась в нашем каталоге, свяжитесь с нами и мы незамедлительно удалим её. Файлы для обмена на трекере предоставлены пользователями сайта, и администрация не несёт ответственности за их содержание. Просьба не заливать файлы, защищенные авторскими правами, а также файлы нелегального содержания!
cron