Оно / Оно преследует / It Follows (Дэвид Роберт Митчелл / David Robert Mitchell) [2014, США, ужасы, детектив, BDRip] Dub (iTunes) + Sub Rus, Eng + Original Eng скачать торрент

Мировая классика кино, Rip, Рипы, Зарубежные фильмы

Модератор: Модераторы видео

  • Статистика раздачи
Размер: 1.77 ГБ   |  Зарегистрирован: 17 фев 2016, 05:55   |   .torrent скачан: 10 раз
Сидеров: 1  [ 0 байт/сек ]     Личеров: 0  [ 0 байт/сек ]  
Список файлов : Кто скачал : Раздают : Скачивают : Кто благодарил : История : Не раздающие : Запрашивали сидеров : Внешние трекеры 
  

Оно / Оно преследует / It Follows (Дэвид Роберт Митчелл / David Robert Mitchell) [2014, США, ужасы, детектив, BDRip] Dub (iTunes) + Sub Rus, Eng + Original Eng

Сообщение Админ » 17 фев 2016, 05:55

Оно / Оно преследует / It Follows

Страна: США
Жанр
: Ужасы, детектив
Год выпуска: 2014
Продолжительность: 01:40:13

Перевод: Профессиональный (дублированный) - iTunes
Cубтитры: русские (Алексей Матвеев), английские
Оригинальная аудиодорожка: английский

Режиссер: Дэвид Роберт Митчелл / David Robert Mitchell

В ролях: Майка Монро, Кейр Гилкрист, Оливия Луккарди, Лили Сепе, Дэниэл Дзоватто, Джейк Вири, Бэйли Спрай, Дэбби Уильямс, Руби Харрис, Леиза Пулидо

Описание: После сексуальной связи 19-летнюю девушку по имени Джей начинают мучать странные видения и непреодолимое чувство того, что кто-то или что-то за ней следит…

Качество видео: BDRip [It Follows. (2014) BDRemux 1080p.mkv]
Формат видео
: AVI

Видео: 720x304 (2.37:1), 23.976 fps, XviD build 73 ~1687 kbps avg, 0.32 bit/pixel
Аудио: 48 kHz, AC3 Dolby Digital, 3/2 (L,C,R,l,r) + LFE ch, ~384 kbps - дубляж
Аудио: 48 kHz, AC3 Dolby Digital, 3/2 (L,C,R,l,r) + LFE ch, ~448 kbps - оригинал (отдельным файлом)

Общее
Полное имя : H:\It.Follows.2014.bdrip_[1.45]_[teko]\It.Follows.2014.bdrip_[1.45].avi
Формат : AVI
Формат/Информация : Audio Video Interleave
Размер файла : 1,46 Гбайт
Продолжительность : 1 ч. 40 м.
Общий поток : 2081 Кбит/сек
Программа кодирования : VirtualDubMod 1.5.10.3 | http://www.virtualdub-fr.org || (build 2550/release)
Библиотека кодирования : VirtualDubMod build 2550/release

Видео
Идентификатор : 0
Формат : MPEG-4 Visual
Профиль формата : Advanced [email protected]
Параметр BVOP формата : 1
Параметр QPel формата : Нет
Параметр GMC формата : Без точки перехода
Параметр матрицы формата : Выборочная
Идентификатор кодека : XVID
Идентификатор кодека/Подсказка : XviD
Продолжительность : 1 ч. 40 м.
Битрейт : 1688 Кбит/сек
Ширина : 720 пикселей
Высота : 304 пикселя
Соотношение сторон : 2,35:1
Частота кадров : 23,976 кадра/сек
Цветовое пространство : YUV
Субдискретизация насыщенности : 4:2:0
Битовая глубина : 8 бит
Тип развёртки : Прогрессивная
Метод сжатия : С потерями
Бит/(Пиксели*Кадры) : 0.322
Размер потока : 1,18 Гбайт (81%)
Библиотека кодирования : XviD 73

Аудио
Идентификатор : 1
Формат : AC-3
Формат/Информация : Audio Coding 3
Расширение режима : CM (complete main)
Параметр Endianness формата : Big
Идентификатор кодека : 2000
Продолжительность : 1 ч. 40 м.
Вид битрейта : Постоянный
Битрейт : 384 Кбит/сек
Каналы : 6 каналов
Расположение каналов : Front: L C R, Side: L R, LFE
Частота : 48,0 КГц
Битовая глубина : 16 бит
Метод сжатия : С потерями
Размер потока : 275 Мбайт (18%)
Выравнивание : Разделение по промежуткам
Продолжительность промежутка : 42 мс. (1,00 видеокадр)
Время предзагрузки промежутка : 500 мс.
   
Торрент: Зарегистрирован [17 фев 2016, 05:55] Скачать торрент
Скачать торрент
О MediaGet
[ Размер 18.42 КБ / Просмотров 97 ]

Статус:
 
Приватный: Нет (DHT включён)
Размер: 1.77 ГБ (1 901 035 960 байт)
   
Аватара пользователя

Администратор
Администратор
 
Раздал: 2.33 ПБ
Скачал: 1.02 ПБ
Ратио: 2.281
Сообщения: 3723
Зарегистрирован: 07 май 2010, 17:29
Medals: 1
Лучший релиз за месяц (1)
  • Личное сообщение
  • ICQ

Вернуться в Зарубежные фильмы (Rip's)

Кто сейчас на конференции

Зарегистрированные пользователи: bigcatwar, ванюшка

Ресурс не предоставляет электронные версии произведений, а занимается лишь коллекционированием и каталогизацией ссылок, присылаемых и публикуемых на форуме нашими читателями. Если вы являетесь правообладателем какого-либо представленного материала и не желаете чтобы ссылка на него находилась в нашем каталоге, свяжитесь с нами и мы незамедлительно удалим её. Файлы для обмена на трекере предоставлены пользователями сайта, и администрация не несёт ответственности за их содержание. Просьба не заливать файлы, защищенные авторскими правами, а также файлы нелегального содержания!
cron