Кэрол / Carol (Тодд Хейнс / Todd Haynes) [2015, Великобритания, США, драма, мелодрама, DVDScreener] DVO (Паровоз Продакшн) + Sub Rus + Original Eng скачать торрент

Мировая классика кино, Rip, Рипы, Зарубежные фильмы

Модератор: Модераторы видео

  • Статистика раздачи
Размер: 1.57 ГБ   |  Зарегистрирован: 17 фев 2016, 05:50   |   .torrent скачан: 11 раз
Сидеров: 22  [ 0 байт/сек ]     Личеров: 1  [ 0 байт/сек ]  
Список файлов : Кто скачал : Раздают : Скачивают : Кто благодарил : История : Не раздающие : Запрашивали сидеров : Внешние трекеры 
  

Кэрол / Carol (Тодд Хейнс / Todd Haynes) [2015, Великобритания, США, драма, мелодрама, DVDScreener] DVO (Паровоз Продакшн) + Sub Rus + Original Eng

Сообщение Админ » 17 фев 2016, 05:50

Кэрол / Carol

Страна: Великобритания, США
Жанр: драма, мелодрама
Год выпуска: 2015
Продолжительность: 01:58:20

Перевод: Любительский (двухголосый закадровый) Паровоз Продакшн
Cубтитры: русские
Оригинальная аудиодорожка: английский (отдельно)

Режиссер: Тодд Хейнс / Todd Haynes

В ролях: Кейт Бланшетт, Руни Мара, Кайл Чандлер, Джейк Лэси, Сара Полсон, Джон Магаро, Кори Майкл Смит, Кевин Краули, Ник Паич, Кэрри Браунштейн, Трент Роулэнд, Эми Уорнер, Майкл Хейни, Венди Лардин, Памела Эванс, Кристин А. Дай, Дуглас Скотт Соренсон, Кен Штрунк, Энн Рескин, Линни Бонд

Описание: В неповторимой атмосфере изысканного Нью-Йорка 50-х годов юная Терез встречает Кэрол, ослепительную зрелую женщину, томящуюся в браке без любви. Мимолетный проблеск влечения перерастает во всепоглощающее чувство, которое навсегда изменит их жизни. Но как довериться любви, если твоя судьба зависит от предрассудков безжалостного времени?



Качество видео: DVDScreener
Формат видео: AVI
Видео кодек: XviD
Аудио кодек: AC3

Видео: 720x384 (1.85:1), 29.970 fps, XviD build 66 ~1508 kbps avg, 0.18 bit/pixel
Аудио#1: 48 kHz, AC3 Dolby Digital, 2/0 2 ch, ~192 kbps - Двухголоска
Аудио#2: 48 kHz, AC3 Dolby Digital, 2/0 2 ch, ~192 kbps - Оригинал (отдельно)
Формат субтитров: softsub (SRT)
General
Complete name : C:\Carol.2015.DVDSCR.XviD.DVO.AC3-EVO.avi
Format : AVI
Format/Info : Audio Video Interleave
File size : 1.42 GiB
Duration : 1h 58mn
Overall bit rate : 1 712 Kbps

Video
ID : 0
Format : MPEG-4 Visual
Format profile : Advanced [email protected]
Format settings, BVOP : 2
Format settings, QPel : No
Format settings, GMC : No warppoints
Format settings, Matrix : Default (H.263)
Codec ID : XVID
Codec ID/Hint : XviD
Duration : 1h 58mn
Bit rate : 1 508 Kbps
Width : 720 pixels
Height : 384 pixels
Display aspect ratio : 1.85:1
Frame rate : 29.970 (29970/1000) fps
Color space : YUV
Chroma subsampling : 4:2:0
Bit depth : 8 bits
Scan type : Progressive
Compression mode : Lossy
Bits/(Pixel*Frame) : 0.182
Stream size : 1.25 GiB (88%)
Writing library : XviD 66

Audio
ID : 1
Format : AC-3
Format/Info : Audio Coding 3
Mode extension : CM (complete main)
Format settings, Endianness : Big
Codec ID : 2000
Duration : 1h 58mn
Bit rate mode : Constant
Bit rate : 192 Kbps
Channel(s) : 2 channels
Channel positions : Front: L R
Sampling rate : 48.0 KHz
Frame rate : 31.250 fps (1536 spf)
Compression mode : Lossy
Stream size : 163 MiB (11%)
Alignment : Aligned on interleaves
Interleave, duration : 32 ms (0.96 video frame)




Oтсутствует какая-либо реклама
   
Торрент: Зарегистрирован [17 фев 2016, 05:50] Скачать торрент
Скачать торрент
О MediaGet
[ Размер 16.52 КБ / Просмотров 97 ]

Статус:
 
Приватный: Нет (DHT включён)
Размер: 1.57 ГБ (1 689 872 967 байт)
   
Аватара пользователя

Администратор
Администратор
 
Раздал: 2.33 ПБ
Скачал: 1.02 ПБ
Ратио: 2.281
Сообщения: 3723
Зарегистрирован: 07 май 2010, 17:29
Medals: 1
Лучший релиз за месяц (1)
  • Личное сообщение
  • ICQ

Вернуться в Зарубежные фильмы (Rip's)

Кто сейчас на конференции

Зарегистрированные пользователи: bigcatwar, ванюшка

Ресурс не предоставляет электронные версии произведений, а занимается лишь коллекционированием и каталогизацией ссылок, присылаемых и публикуемых на форуме нашими читателями. Если вы являетесь правообладателем какого-либо представленного материала и не желаете чтобы ссылка на него находилась в нашем каталоге, свяжитесь с нами и мы незамедлительно удалим её. Файлы для обмена на трекере предоставлены пользователями сайта, и администрация не несёт ответственности за их содержание. Просьба не заливать файлы, защищенные авторскими правами, а также файлы нелегального содержания!
cron