Дядя Джон / Uncle John (Стивен Пит / Steven Piet) [2015, США, Триллер, Криминал, Детектив, WEB-DLRip] DVO (Parovoz Production) скачать торрент

Мировая классика кино, Rip, Рипы, Зарубежные фильмы

Модератор: Модераторы видео

  • Статистика раздачи
Размер: 1.45 ГБ   |  Зарегистрирован: 17 фев 2016, 05:49   |   .torrent скачан: 12 раз
Сидеров: 392  [ 0 байт/сек ]     Личеров: 39  [ 0 байт/сек ]  
Список файлов : Кто скачал : Раздают : Скачивают : Кто благодарил : История : Не раздающие : Запрашивали сидеров : Внешние трекеры 
  

Дядя Джон / Uncle John (Стивен Пит / Steven Piet) [2015, США, Триллер, Криминал, Детектив, WEB-DLRip] DVO (Parovoz Production)

Сообщение Админ » 17 фев 2016, 05:49


Дядя Джон / Uncle John


Страна: США
Жанр: Триллер, Криминал, Детектив
Год выпуска: 2015
Продолжительность: 01:54:11
Перевод: Любительский (двухголосый закадровый) Parovoz Production
Субтитры: нет
Оригинальная аудиодорожка: нет
Режиссер: Стивен Пит / Steven Piet
В ролях: Джон Эштон, Alex Moffat, Дженна Линг, Ронни Джин Блевинс, Синтия Бэйкер, Энди Камерон, Адриа Доун, Тим Декер, Дон Форстон
Описание: Горожанин возвращается в свой тихий родной городок, пытаясь избежать обвинения в убийстве.

Качество видео: WEB-DLRip
Формат видео: AVI
Видео: XviD, 720x304 (2.35:1), 23.976 fps, ~1600 kbps avg, 0.30 bit/pixel
Аудио: 48 kHz, AC3 Dolby Digital, 2/0 (L,R) ch, ~192 kbps
Complete name : C:\Users\1\Desktop\РАЗДАЧИ\Uncle John (2015) WEB-DLRip.avi
Format : AVI
Format/Info : Audio Video Interleave
File size : 1.45 GiB
Duration : 1h 54mn
Overall bit rate : 1 820 Kbps
Writing application : VirtualDubMod 1.5.10.3 | www.virtualdub-fr.org || (build 2550/release)
Writing library : VirtualDubMod build 2550/release

Video
ID : 0
Format : MPEG-4 Visual
Format profile : Advanced [email protected]
Format settings, BVOP : 1
Format settings, QPel : No
Format settings, GMC : No warppoints
Format settings, Matrix : Custom
Codec ID : XVID
Codec ID/Hint : XviD
Duration : 1h 54mn
Bit rate : 1 619 Kbps
Width : 720 pixels
Height : 304 pixels
Display aspect ratio : 2.35:1
Frame rate : 23.976 (23976/1000) fps
Color space : YUV
Chroma subsampling : 4:2:0
Bit depth : 8 bits
Scan type : Progressive
Compression mode : Lossy
Bits/(Pixel*Frame) : 0.308
Stream size : 1.29 GiB (89%)
Writing library : XviD 73

Audio
ID : 1
Format : AC-3
Format/Info : Audio Coding 3
Mode extension : CM (complete main)
Format settings, Endianness : Big
Codec ID : 2000
Duration : 1h 54mn
Bit rate mode : Constant
Bit rate : 192 Kbps
Channel(s) : 2 channels
Channel positions : Front: L R
Sampling rate : 48.0 KHz
Frame rate : 31.250 fps (1536 spf)
Compression mode : Lossy
Stream size : 157 MiB (11%)
Alignment : Split accross interleaves
Interleave, duration : 42 ms (1.00 video frame)
Interleave, preload duratio : 500 ms
   
Торрент: Зарегистрирован [17 фев 2016, 05:49] Скачать торрент
Скачать торрент
О MediaGet
[ Размер 15.09 КБ / Просмотров 90 ]

Статус:
 
Приватный: Нет (DHT включён)
Размер: 1.45 ГБ (1 558 515 712 байт)
   
Аватара пользователя

Администратор
Администратор
 
Раздал: 2.33 ПБ
Скачал: 1.02 ПБ
Ратио: 2.281
Сообщения: 3723
Зарегистрирован: 07 май 2010, 17:29
Medals: 1
Лучший релиз за месяц (1)
  • Личное сообщение
  • ICQ

Вернуться в Зарубежные фильмы (Rip's)

Кто сейчас на конференции

Зарегистрированные пользователи: bigcatwar

Ресурс не предоставляет электронные версии произведений, а занимается лишь коллекционированием и каталогизацией ссылок, присылаемых и публикуемых на форуме нашими читателями. Если вы являетесь правообладателем какого-либо представленного материала и не желаете чтобы ссылка на него находилась в нашем каталоге, свяжитесь с нами и мы незамедлительно удалим её. Файлы для обмена на трекере предоставлены пользователями сайта, и администрация не несёт ответственности за их содержание. Просьба не заливать файлы, защищенные авторскими правами, а также файлы нелегального содержания!
cron