Незваная / The Unwanted (2014) BDRip [VO] скачать торрент

Мировая классика кино, Rip, Рипы, Зарубежные фильмы

Модератор: Модераторы видео

  • Статистика раздачи
Размер: 1.35 ГБ   |  Зарегистрирован: 15 фев 2016, 02:19   |   .torrent скачан: 13 раз
Сидеров: 79  [ 0 байт/сек ]     Личеров: 10  [ 0 байт/сек ]  
Список файлов : Кто скачал : Раздают : Скачивают : Кто благодарил : История : Не раздающие : Запрашивали сидеров : Внешние трекеры 
  

Незваная / The Unwanted (2014) BDRip [VO]

Сообщение Админ » 15 фев 2016, 02:19

Незваная / The Unwanted (2014) BDRip

Производство: США
Жанр: Триллер, Ужасы, Детектив

Режиссер: Брэт Вуд
Продюсер: Крис Бёрнс, Кристофер Миллс, Мелисса Палмер
Актеры: Джейн Басс, Крис Бёрнс, Ханна Файрман, Роберт Хэтч, Нил Р. Хазард, Элизабет Хантер, Уильям Кэтт, Трэйси Мартин, Кристен Орр

Описание:
Странная незнакомка появляется в городе и начинает выяснять о своей матери, которая там жила и потом пропала. В кафе она знакомится с хрупкой официанткой, в доме которой жила ее мать. Между ними завязывается странная дружба, переросшая в сексуальную связь. Ее отцу не нравится такие отношения и пробуждают в нем гнев, который открывает завесу над загадочной тайной исчезновения матери незнакомки.


Возраст: 18+ (зрителям, достигшим 18 лет. запрещено для детей)
Дата мировой премьеры: 31 марта 2014

Продолжительность: 01:37:21
Качество видео: BDRip
Перевод: Одноголосый закадровый, любительский
Озвучка / Автор перевода: Хихикающий доктор
Вид субтитров: Отсутствуют

Видео: Xvid, 720x400, 1794 Кбит/с
Аудио: MP3, 2 ch, 192 Кбит/с
Код:
Код: Выделить всё
General
Complete name                            : D:\Фильмы\The.Unwanted.2014.BDRip.Xixidok.avi
Format                                   : AVI
Format/Info                              : Audio Video Interleave
File size                                : 1.35 GiB
Duration                                 : 1h 37mn
Overall bit rate                         : 1 996 Kbps
Writing application                      : VirtualDubMod 1.5.10.3 (build 2550/release)
Writing library                          : VirtualDubMod build 2550/release

Video
ID                                       : 0
Format                                   : MPEG-4 Visual
Format profile                           : Advanced [email protected]
Format settings, BVOP                    : 2
Format settings, QPel                    : No
Format settings, GMC                     : No warppoints
Format settings, Matrix                  : Default (H.263)
Muxing mode                              : Packed bitstream
Codec ID                                 : XVID
Codec ID/Hint                            : XviD
Duration                                 : 1h 37mn
Bit rate                                 : 1 794 Kbps
Width                                    : 720 pixels
Height                                   : 400 pixels
Display aspect ratio                     : 16:9
Frame rate                               : 23.976 (23976/1000) fps
Color space                              : YUV
Chroma subsampling                       : 4:2:0
Bit depth                                : 8 bits
Scan type                                : Progressive
Compression mode                         : Lossy
Bits/(Pixel*Frame)                       : 0.260
Stream size                              : 1.22 GiB (90%)
Writing library                          : XviD 73

Audio
ID                                       : 1
Format                                   : MPEG Audio
Format version                           : Version 1
Format profile                           : Layer 3
Codec ID                                 : 55
Codec ID/Hint                            : MP3
Duration                                 : 1h 37mn
Bit rate mode                            : Constant
Bit rate                                 : 192 Kbps
Channel(s)                               : 2 channels
Sampling rate                            : 44.1 KHz
Compression mode                         : Lossy
Stream size                              : 133 MiB (10%)
Alignment                                : Split accross interleaves
Interleave, duration                     : 42 ms (1.00 video frame)
Interleave, preload duration             : 500 ms

Скриншоты:



Время раздачи: 24/7 (круглосуточно)
   
Торрент: Зарегистрирован [15 фев 2016, 02:19] Скачать торрент
Скачать торрент
О MediaGet
[ Размер 14.32 КБ / Просмотров 119 ]

Статус:
 
Приватный: Нет (DHT включён)
Размер: 1.35 ГБ (1 452 238 848 байт)
   
Аватара пользователя

Администратор
Администратор
 
Раздал: 2.33 ПБ
Скачал: 1.02 ПБ
Ратио: 2.281
Сообщения: 3723
Зарегистрирован: 07 май 2010, 17:29
Medals: 1
Лучший релиз за месяц (1)
  • Личное сообщение
  • ICQ

  • Похожие торренты
    Ответы
    Просмотры
    Последнее сообщение

Вернуться в Зарубежные фильмы (Rip's)

Кто сейчас на конференции

Зарегистрированные пользователи: bigcatwar

Ресурс не предоставляет электронные версии произведений, а занимается лишь коллекционированием и каталогизацией ссылок, присылаемых и публикуемых на форуме нашими читателями. Если вы являетесь правообладателем какого-либо представленного материала и не желаете чтобы ссылка на него находилась в нашем каталоге, свяжитесь с нами и мы незамедлительно удалим её. Файлы для обмена на трекере предоставлены пользователями сайта, и администрация не несёт ответственности за их содержание. Просьба не заливать файлы, защищенные авторскими правами, а также файлы нелегального содержания!
cron