Я здесь / I Am Here (2014) HDRip [VO] скачать торрент

Мировая классика кино, Rip, Рипы, Зарубежные фильмы

Модератор: Модераторы видео

  • Статистика раздачи
Размер: 1.47 ГБ   |  Зарегистрирован: 15 фев 2016, 02:19   |   .torrent скачан: 10 раз
Сидеров: 80  [ 0 байт/сек ]     Личеров: 31  [ 0 байт/сек ]  
Список файлов : Кто скачал : Раздают : Скачивают : Кто благодарил : История : Не раздающие : Запрашивали сидеров : Внешние трекеры 
  

Я здесь / I Am Here (2014) HDRip [VO]

Сообщение Админ » 15 фев 2016, 02:19

Я здесь / I Am Here (2014) HDRip

Производство: Германия, Дания / Film i Väst, ONE TWO Films
Жанр: Драма, Триллер

Режиссер: Андерс Моргенталер
Продюсер: Джули Линд-Хольм, Джессика Аск, Сол Бонди
Актеры: Ким Бейсингер, Джордан Прентис, Себастьян Шиппер, Петер Стормаре, Роберт Хунгер-Бюлер, Анук Вагенер, Нина Фог, Сабина Хаупт, Филипп Хохмайр, Норман Хаккер

Описание:
Успешная предпринимательница Мария достигла всего, кроме самого желаемого - собственного ребенка. Она решает претворить это в жизнь сама и отправляется в отчаянное и опасное путешествие, чтобы исполнить свою мечту.


Возраст: 18+ (зрителям, достигшим 18 лет. запрещено для детей)
Дата мировой премьеры: 30 сентября 2014

Продолжительность: 01:37:46
Качество видео: HDRip
Перевод: Одноголосый закадровый, любительский
Озвучка / Автор перевода: R.A.I.M
Вид субтитров: Отсутствуют

Видео: Xvid, 720x304, 1692 Кбит/с
Аудио 1: AC3, 2 ch, 224 Кбит/с - Русский | Одноголосый закадровый, любительский
Аудио 2: AC3, 2 ch, 224 Кбит/с - Английский | Оригинал
Код:
Код: Выделить всё
General
Complete name                            : D:\Фильмы\Ya.3desj.2014.HDRip.avi
Format                                   : AVI
Format/Info                              : Audio Video Interleave
File size                                : 1.47 GiB
Duration                                 : 1h 37mn
Overall bit rate                         : 2 155 Kbps
Writing application                      : VirtualDubMod 1.5.10.2 (build 2540/release)
Writing library                          : VirtualDubMod build 2540/release

Video
ID                                       : 0
Format                                   : MPEG-4 Visual
Format profile                           : Advanced [email protected]
Format settings, BVOP                    : 2
Format settings, QPel                    : No
Format settings, GMC                     : No warppoints
Format settings, Matrix                  : Default (MPEG)
Codec ID                                 : XVID
Codec ID/Hint                            : XviD
Duration                                 : 1h 37mn
Bit rate                                 : 1 693 Kbps
Width                                    : 720 pixels
Height                                   : 304 pixels
Display aspect ratio                     : 2.35:1
Frame rate                               : 24.000 fps
Color space                              : YUV
Chroma subsampling                       : 4:2:0
Bit depth                                : 8 bits
Scan type                                : Progressive
Compression mode                         : Lossy
Bits/(Pixel*Frame)                       : 0.322
Stream size                              : 1.16 GiB (79%)
Writing library                          : XviD 1.2.1 (UTC 2008-12-04)

Audio #1
ID                                       : 1
Format                                   : AC-3
Format/Info                              : Audio Coding 3
Mode extension                           : CM (complete main)
Format settings, Endianness              : Big
Codec ID                                 : 2000
Duration                                 : 1h 37mn
Bit rate mode                            : Constant
Bit rate                                 : 224 Kbps
Channel(s)                               : 2 channels
Channel positions                        : Front: L R
Sampling rate                            : 48.0 KHz
Frame rate                               : 31.250 fps (1536 spf)
Compression mode                         : Lossy
Stream size                              : 157 MiB (10%)
Alignment                                : Split accross interleaves
Interleave, duration                     : 42 ms (1.00 video frame)
Interleave, preload duration             : 500 ms

Audio #2
ID                                       : 2
Format                                   : AC-3
Format/Info                              : Audio Coding 3
Mode extension                           : CM (complete main)
Format settings, Endianness              : Big
Codec ID                                 : 2000
Duration                                 : 1h 37mn
Bit rate mode                            : Constant
Bit rate                                 : 224 Kbps
Channel(s)                               : 2 channels
Channel positions                        : Front: L R
Sampling rate                            : 48.0 KHz
Frame rate                               : 31.250 fps (1536 spf)
Compression mode                         : Lossy
Stream size                              : 157 MiB (10%)
Alignment                                : Split accross interleaves
Interleave, duration                     : 42 ms (1.00 video frame)
Interleave, preload duration             : 500 ms

Скриншоты:



Время раздачи: 24/7 (круглосуточно)
   
Торрент: Зарегистрирован [15 фев 2016, 02:19] Скачать торрент
Скачать торрент
О MediaGet
[ Размер 15.49 КБ / Просмотров 111 ]

Статус:
 
Приватный: Нет (DHT включён)
Размер: 1.47 ГБ (1 580 021 760 байт)
   
Аватара пользователя

Администратор
Администратор
 
Раздал: 2.33 ПБ
Скачал: 1.02 ПБ
Ратио: 2.281
Сообщения: 3723
Зарегистрирован: 07 май 2010, 17:29
Medals: 1
Лучший релиз за месяц (1)
  • Личное сообщение
  • ICQ

  • Похожие торренты
    Ответы
    Просмотры
    Последнее сообщение

Вернуться в Зарубежные фильмы (Rip's)

Кто сейчас на конференции

Зарегистрированные пользователи: bigcatwar, ванюшка

Ресурс не предоставляет электронные версии произведений, а занимается лишь коллекционированием и каталогизацией ссылок, присылаемых и публикуемых на форуме нашими читателями. Если вы являетесь правообладателем какого-либо представленного материала и не желаете чтобы ссылка на него находилась в нашем каталоге, свяжитесь с нами и мы незамедлительно удалим её. Файлы для обмена на трекере предоставлены пользователями сайта, и администрация не несёт ответственности за их содержание. Просьба не заливать файлы, защищенные авторскими правами, а также файлы нелегального содержания!
cron