В центре внимания / Spotlight (2015) BDRip [H.264/1080p] скачать торрент

Мировая классика кино, Rip, Рипы, Зарубежные фильмы

Модератор: Модераторы видео

  • Статистика раздачи
Размер: 10.15 ГБ   |  Зарегистрирован: 11 фев 2016, 18:00   |   .torrent скачан: 11 раз
Сидеров: 225  [ 0 байт/сек ]     Личеров: 19  [ 0 байт/сек ]  
Список файлов : Кто скачал : Раздают : Скачивают : Кто благодарил : История : Не раздающие : Запрашивали сидеров : Внешние трекеры 
  

В центре внимания / Spotlight (2015) BDRip [H.264/1080p]

Сообщение Админ » 11 фев 2016, 18:01

В центре внимания / Spotlight (2015) BDRip [H.264/1080p]

Производство: США
Жанр: триллер, драма, биография, история

Режиссер: Том МакКарти
Актеры: Марк Руффало, Майкл Китон, Рэйчел МакАдамс, Лив Шрайбер, Джон Слэттери, Стэнли Туччи, Брайан Д Арси Джеймс, Елена Стайтелер, Джин Аморозо, Даг Мюррэй

Описание:
Основанная на реальных событиях история журналистского расследования одного из самых громких в истории США секс-скандалов. Корреспонденты бостонской газеты разоблачают случаи педофилии, в которых обвиняются представители Церкви…


Дата мировой премьеры: 3 сентября 2015
Дата премьеры в России: 11 февраля 2016, «Парадиз»

Релиз от: NNM-CLUB
Продолжительность: 02:09:03
Качество видео: BDRip (BLOW)
Перевод: Двуголосый закадровый, любительский
Озвучка / Автор перевода: Parovoz Production
Субтитры: Английский
Реклама: Удалил рекламу казино (2 вставки)

Видео: AVC/H.264, 1920x1040, ~9401 Kbps,
Аудио 1: AC3, 2 ch, 384 Kbps | DVO русский
Аудио 2: DTS, 6 ch, 1509 Kbps | Английский
Общее
Полное имя :\В центре внимания_Spotlight.2015.BDRip.1080p.NNM-CLUB.mkv
Формат : Matroska
Версия формата : Version 2
Размер файла : 10,2 Гбайт
Продолжительность : 2 ч. 9 м.
Общий поток : 11,3 Мбит/сек
Название фильма : В центре внимания_Spotlight.2015.BDRip.1080p.NNM-CLUB
Дата кодирования : UTC 2016-02-10 10:59:15
Программа кодирования : mkvmerge v7.7.0 ('Six Voices') 64bit built on Feb 28 2015 23:39:33
Библиотека кодирования : libebml v1.3.1 + libmatroska v1.4.2

Видео
Идентификатор : 1
Формат : AVC
Формат/Информация : Advanced Video Codec
Профиль формата :
Параметр CABAC формата : Да
Параметр ReFrames формата : 4 кадра
Идентификатор кодека : V_MPEG4/ISO/AVC
Продолжительность : 2 ч. 9 м.
Битрейт : 9401 Кбит/сек
Ширина : 1920 пикселей
Высота : 1040 пикселей
Соотношение сторон : 1,85:1
Режим частоты кадров : Постоянный
Частота кадров : 23,976 кадра/сек
Цветовое пространство : YUV
Субдискретизация насыщенности : 4:2:0
Битовая глубина : 8 бит
Тип развёртки : Прогрессивная
Бит/(Пиксели*Кадры) : 0.196
Размер потока : 8,24 Гбайт (81%)
Заголовок : В центре внимания_Spotlight.2015.BDRip.1080p.NNM-CLUB
Библиотека кодирования : x264 core 148 r2665 a01e339
Настройки программы : cabac=1 / ref=4 / deblock=1:0:0 / analyse=0x3:0x113 / me=umh / subme=8 / psy=1 / psy_rd=1.00:0.00 / mixed_ref=1 / me_range=16 / chroma_me=1 / trellis=1 / 8x8dct=1 / cqm=0 / deadzone=21,11 / fast_pskip=0 / chroma_qp_offset=-2 / threads=24 / lookahead_threads=4 / sliced_threads=0 / nr=0 / decimate=1 / interlaced=0 / bluray_compat=0 / constrained_intra=0 / bframes=3 / b_pyramid=2 / b_adapt=2 / b_bias=0 / direct=3 / weightb=1 / open_gop=0 / weightp=2 / keyint=250 / keyint_min=23 / scenecut=40 / intra_refresh=0 / rc_lookahead=50 / rc=2pass / mbtree=1 / bitrate=9401 / ratetol=1.0 / qcomp=0.60 / qpmin=0 / qpmax=69 / qpstep=4 / cplxblur=20.0 / qblur=0.5 / ip_ratio=1.40 / aq=1:1.00
Язык : English
Default : Да
Forced : Нет

Аудио #1
Идентификатор : 2
Формат : AC-3
Формат/Информация : Audio Coding 3
Расширение режима : CM (complete main)
Параметр Endianness формата : Big
Идентификатор кодека : A_AC3
Продолжительность : 2 ч. 9 м.
Вид битрейта : Постоянный
Битрейт : 384 Кбит/сек
Каналы : 1 канал
Расположение каналов : Front: C
Частота : 48,0 КГц
Метод сжатия : С потерями
Размер потока : 355 Мбайт (3%)
Заголовок : DVO - Parovoz Production
Язык : Russian
Default : Да
Forced : Нет

Аудио #2
Идентификатор : 3
Формат : DTS
Формат/Информация : Digital Theater Systems
Режим : 16
Параметр Endianness формата : Big
Идентификатор кодека : A_DTS
Продолжительность : 2 ч. 9 м.
Вид битрейта : Постоянный
Битрейт : 1509 Кбит/сек
Каналы : 6 каналов
Расположение каналов : Front: L C R, Side: L R, LFE
Частота : 48,0 КГц
Битовая глубина : 24 бит
Метод сжатия : С потерями
Размер потока : 1,36 Гбайт (13%)
Язык : English
Default : Нет
Forced : Нет

Текст #1
Идентификатор : 4
Формат : UTF-8
Идентификатор кодека : S_TEXT/UTF8
Идентификатор кодека/Информация : UTF-8 Plain Text
Заголовок : English regular
Default : Нет
Forced : Нет

Текст #2
Идентификатор : 5
Формат : UTF-8
Идентификатор кодека : S_TEXT/UTF8
Идентификатор кодека/Информация : UTF-8 Plain Text
Заголовок : English sdh
Default : Нет
Forced : Нет

Меню
00:00:00.000 : en:00:00:00.000
00:08:20.750 : en:00:08:20.750
00:14:30.536 : en:00:14:30.536
00:21:51.519 : en:00:21:51.519
00:27:38.907 : en:00:27:38.907
00:35:48.772 : en:00:35:48.772
00:45:38.986 : en:00:45:38.986
00:49:12.199 : en:00:49:12.199
00:53:21.156 : en:00:53:21.156
00:59:36.573 : en:00:59:36.573
01:05:29.217 : en:01:05:29.217
01:10:47.535 : en:01:10:47.535
01:17:30.688 : en:01:17:30.688
01:23:30.047 : en:01:23:30.047
01:30:03.148 : en:01:30:03.148
01:34:27.495 : en:01:34:27.495
01:42:52.541 : en:01:42:52.541
01:50:57.943 : en:01:50:57.943
01:55:50.110 : en:01:55:50.110
02:01:30.575 : en:02:01:30.575
Скриншоты:



Время раздачи: 24/7
   
Торрент: Зарегистрирован [11 фев 2016, 18:00] За каждые 2 ГБ. аплоада (сидирования) этого торрента начисляется бонус: 0.001 Скачать торрент
Скачать торрент
О MediaGet
[ Размер 51.53 КБ / Просмотров 102 ]

Статус:
 
Приватный: Нет (DHT включён)
Размер: 10.15 ГБ (10 902 488 470 байт)
   
Аватара пользователя

Администратор
Администратор
 
Раздал: 2.33 ПБ
Скачал: 1.02 ПБ
Ратио: 2.281
Сообщения: 3719
Зарегистрирован: 07 май 2010, 17:29
Medals: 1
Лучший релиз за месяц (1)
  • Личное сообщение
  • ICQ

  • Похожие торренты
    Ответы
    Просмотры
    Последнее сообщение

Re: В центре внимания / Spotlight (2015) BDRip [H.264/1080p]

Сообщение Dryu » 16 фев 2016, 19:29

спасибо
Аватара пользователя
Пир-флудер
Пир-флудер
 
Раздал: 3.64 ТБ
Скачал: 1.32 ТБ
Ратио: 2.797
Сообщения: 624
Зарегистрирован: 03 июл 2009, 15:38
Откуда: Анапа-Сити
  • Личное сообщение
  • ICQ


Вернуться в Зарубежные фильмы (Rip's)

Кто сейчас на конференции

Зарегистрированные пользователи: нет зарегистрированных пользователей

Ресурс не предоставляет электронные версии произведений, а занимается лишь коллекционированием и каталогизацией ссылок, присылаемых и публикуемых на форуме нашими читателями. Если вы являетесь правообладателем какого-либо представленного материала и не желаете чтобы ссылка на него находилась в нашем каталоге, свяжитесь с нами и мы незамедлительно удалим её. Файлы для обмена на трекере предоставлены пользователями сайта, и администрация не несёт ответственности за их содержание. Просьба не заливать файлы, защищенные авторскими правами, а также файлы нелегального содержания!
cron