Будь мужчиной / Man Up (2015) BDRip [H.264/1080p] скачать торрент

Мировая классика кино, Rip, Рипы, Зарубежные фильмы

Модератор: Модераторы видео

  • Статистика раздачи
Размер: 7.81 ГБ   |  Зарегистрирован: 11 фев 2016, 18:00   |   .torrent скачан: 3 раз
Сидеров: 0  [ 0 байт/сек ]     Личеров: 0  [ 0 байт/сек ]  
Список файлов : Кто скачал : Раздают : Скачивают : Кто благодарил : История : Не раздающие : Запрашивали сидеров : Внешние трекеры 
  

Будь мужчиной / Man Up (2015) BDRip [H.264/1080p]

Сообщение Админ » 11 фев 2016, 18:00

Будь мужчиной / Man Up (2015) BDRip [H.264/1080p]

Производство: Великобритания, Франция / Big Talk Productions, Studio Canal
Жанр: Драма, Мелодрама, Комедия

Режиссер: Бен Палмер
Актеры: Лэйк Белл, Саймон Пегг, Рори Киннер, Оливия Уильямс, Офелия Ловибонд, Генри Ллойд-Хьюз, Шэрон Хорган, Стивен Кэмпбелл Мур, Дин-Чарльз Чепмен, Кен Стотт, Харриет Уолтер, Рулан Чжан

Описание:
Одинокая женщина по ошибке попадает на свидание вслепую, которое помогает ей найти идеального бойфренда.


Рейтинг MPAA R - Детям до 17 лет обязательно присутствие родителей
Дата мировой премьеры: 19 апреля 2015
Дата премьеры в России: 11 февраля 2016

Продолжительность: 01:27:54
Качество видео: BDRip 1080p
Перевод: Любительский дубляж
Язык субтитров: английский
Вид субтитров: Вшитые отключаемые

Видео: AVC/H.264, 1920x800 (2.40:1), ~11,6 mbps
Аудио1: AC3, 6 ch, 384 Kbps - русский
Аудио2: DTS, 6 ch, 768 Kbps - английский
Код:
Код: Выделить всё
Общее
Уникальный идентификатор                 : 186200762350309689895419565758594506982 (0x8C14F65F0C51E6FFB1F79343092D60E6)
Полное имя                               : F:\торрент файлы\Bud.MuZh1kOm.2015.D.BDRip.1080p.mkv
Формат                                   : Matroska
Версия формата                           : Version 2
Размер файла                             : 7,81 Гбайт
Продолжительность                        : 1 ч. 27 м.
Общий поток                              : 12,7 Мбит/сек
Дата кодирования                         : UTC 2016-02-10 19:11:49
Программа кодирования                    : mkvmerge v8.3.0 ('Over the Horizon') 64bit
Библиотека кодирования                   : libebml v1.3.1 + libmatroska v1.4.2

Видео
Идентификатор                            : 1
Формат                                   : AVC
Формат/Информация                        : Advanced Video Codec
Профиль формата                          :
Параметр CABAC формата                   : Да
Параметр ReFrames формата                : 5 кадров
Идентификатор кодека                     : V_MPEG4/ISO/AVC
Продолжительность                        : 1 ч. 27 м.
Битрейт                                  : 11,6 Мбит/сек
Ширина                                   : 1920 пикселей
Высота                                   : 800 пикселей
Соотношение сторон                       : 2,40:1
Режим частоты кадров                     : Постоянный
Частота кадров                           : 24,000 кадра/сек
Цветовое пространство                    : YUV
Субдискретизация насыщенности            : 4:2:0
Битовая глубина                          : 8 бит
Тип развёртки                            : Прогрессивная
Бит/(Пиксели*Кадры)                      : 0.314
Размер потока                            : 7,10 Гбайт (91%)
Библиотека кодирования                   : x264 core 148 r2638 7599210
Настройки программы                      : cabac=1 / ref=5 / deblock=1:-3:-3 / analyse=0x3:0x133 / me=umh / subme=10 / psy=1 / psy_rd=1.00:0.00 / mixed_ref=1 / me_range=24 / chroma_me=1 / trellis=2 / 8x8dct=1 / cqm=0 / deadzone=21,11 / fast_pskip=1 / chroma_qp_offset=-2 / threads=12 / lookahead_threads=2 / sliced_threads=0 / nr=0 / decimate=0 / interlaced=0 / bluray_compat=0 / constrained_intra=0 / bframes=8 / b_pyramid=2 / b_adapt=2 / b_bias=0 / direct=3 / weightb=1 / open_gop=0 / weightp=2 / keyint=250 / keyint_min=24 / scenecut=40 / intra_refresh=0 / rc=crf / mbtree=0 / crf=18.9 / qcomp=0.60 / qpmin=0 / qpmax=69 / qpstep=4 / ip_ratio=1.40 / pb_ratio=1.30 / aq=3:0.80
Язык                                     : English
Default                                  : Да
Forced                                   : Нет

Аудио #1
Идентификатор                            : 2
Формат                                   : AC-3
Формат/Информация                        : Audio Coding 3
Расширение режима                        : CM (complete main)
Параметр Endianness формата              : Big
Идентификатор кодека                     : A_AC3
Продолжительность                        : 1 ч. 27 м.
Вид битрейта                             : Постоянный
Битрейт                                  : 384 Кбит/сек
Каналы                                   : 6 каналов
Расположение каналов                     : Front: L C R, Side: L R, LFE
Частота                                  : 48,0 КГц
Частота кадров                           : 31,250 кадров/сек (1536 spf)
Метод сжатия                             : С потерями
Размер потока                            : 241 Мбайт (3%)
Default                                  : Да
Forced                                   : Нет

Аудио #2
Идентификатор                            : 3
Формат                                   : DTS
Формат/Информация                        : Digital Theater Systems
Режим                                    : 16
Параметр Endianness формата              : Big
Идентификатор кодека                     : A_DTS
Продолжительность                        : 1 ч. 27 м.
Вид битрейта                             : Постоянный
Битрейт                                  : 768 Кбит/сек
Каналы                                   : 6 каналов
Расположение каналов                     : Front: L C R, Side: L R, LFE
Частота                                  : 48,0 КГц
Частота кадров                           : 93,750 кадра/сек (512 spf)
Битовая глубина                          : 24 бит
Метод сжатия                             : С потерями
Размер потока                            : 483 Мбайт (6%)
Язык                                     : English
Default                                  : Нет
Forced                                   : Нет

Текст #1
Идентификатор                            : 4
Формат                                   : UTF-8
Идентификатор кодека                     : S_TEXT/UTF8
Идентификатор кодека/Информация          : UTF-8 Plain Text
Продолжительность                        : 1 ч. 27 м.
Битрейт                                  : 89 бит/сек
Count of elements                        : 1475
Размер потока                            : 57,4 Кбайт (0%)
Язык                                     : English
Default                                  : Нет
Forced                                   : Нет

Текст #2
Идентификатор                            : 5
Формат                                   : UTF-8
Идентификатор кодека                     : S_TEXT/UTF8
Идентификатор кодека/Информация          : UTF-8 Plain Text
Продолжительность                        : 1 ч. 27 м.
Битрейт                                  : 93 бит/сек
Count of elements                        : 1542
Размер потока                            : 59,7 Кбайт (0%)
Заголовок                                : SDH
Язык                                     : English
Default                                  : Нет
Forced                                   : Нет

Меню
00:00:00.000                             : en:00:00:00.000
00:06:28.458                             : en:00:06:28.458
00:13:18.042                             : en:00:13:18.042
00:22:19.292                             : en:00:22:19.292
00:27:40.875                             : en:00:27:40.875
00:34:05.333                             : en:00:34:05.333
00:41:57.542                             : en:00:41:57.542
00:48:13.042                             : en:00:48:13.042
00:55:51.000                             : en:00:55:51.000
01:04:15.292                             : en:01:04:15.292
01:10:15.667                             : en:01:10:15.667
01:18:08.792                             : en:01:18:08.792

Скриншоты:


Время раздачи: с 11:00 до 16:00 (до появления первых 3-5 скачавших)
   
Торрент: Зарегистрирован [11 фев 2016, 18:00] За каждые 2 ГБ. аплоада (сидирования) этого торрента начисляется бонус: 0.001 Скачать торрент
Скачать торрент
О MediaGet
[ Размер 10.58 КБ / Просмотров 101 ]

Статус:
 
Приватный: Нет (DHT включён)
Размер: 7.81 ГБ (8 389 436 168 байт)
   
Аватара пользователя

Администратор
Администратор
 
Раздал: 2.33 ПБ
Скачал: 1.02 ПБ
Ратио: 2.281
Сообщения: 3719
Зарегистрирован: 07 май 2010, 17:29
Medals: 1
Лучший релиз за месяц (1)
  • Личное сообщение
  • ICQ

  • Похожие торренты
    Ответы
    Просмотры
    Последнее сообщение

Вернуться в Зарубежные фильмы (Rip's)

Кто сейчас на конференции

Зарегистрированные пользователи: нет зарегистрированных пользователей

Ресурс не предоставляет электронные версии произведений, а занимается лишь коллекционированием и каталогизацией ссылок, присылаемых и публикуемых на форуме нашими читателями. Если вы являетесь правообладателем какого-либо представленного материала и не желаете чтобы ссылка на него находилась в нашем каталоге, свяжитесь с нами и мы незамедлительно удалим её. Файлы для обмена на трекере предоставлены пользователями сайта, и администрация не несёт ответственности за их содержание. Просьба не заливать файлы, защищенные авторскими правами, а также файлы нелегального содержания!
cron