Новогодний отрыв / Incidencias (2015) WEB-DLRip [Line] скачать торрент

Мировая классика кино, Rip, Рипы, Зарубежные фильмы

Модератор: Модераторы видео

  • Статистика раздачи
Размер: 1.37 ГБ   |  Зарегистрирован: 06 фев 2016, 15:10   |   .torrent скачан: 12 раз
Сидеров: 17  [ 0 байт/сек ]     Личеров: 1  [ 0 байт/сек ]  
Список файлов : Кто скачал : Раздают : Скачивают : Кто благодарил : История : Не раздающие : Запрашивали сидеров : Внешние трекеры 
  

Новогодний отрыв / Incidencias (2015) WEB-DLRip [Line]

Сообщение Админ » 06 фев 2016, 15:10

Новогодний отрыв / Incidencias (2015) WEB-DLRip

Производство: Испания, Castelao Pictures, Somnium Films
Жанр: Комедия

Режиссер: Хосе Корбачо, Хуан Крус
Продюсер: Валентина Чидичино, Карлос Фернандес, Адриа Монес
Актеры: Росси де Пальма, Лола Дуэньяс, Карлос Аресес, Иманоль Ариас, Аида Фольч, Рубен Очандиано, Нурия Гаго, Роберто Аламо, Эрнесто Альтерио

Описание:
В канун нового года пассажирский поезд терпит аварию и застревает на пустынном участке. Время неумолимо движется к полуночи, а помощи все нет. Пассажиры теряют последнюю надежду встретить праздник в кругу своих близких. Уныние сменяется отчаянием и подозрительностью. Всем начинает казаться, что один из путешественников — опасный преступник, вынашивающий кошмарные планы…


Дата мировой премьеры: 24 октября 2015
Дата премьеры в России: 21 января 2016, «Русский Репортаж»

Продолжительность: 01:23:06
Качество видео: WEB-DLRip
Перевод: Дублированный (официальный) Чистый звук
Вид субтитров: Отсутствуют

Видео: XviD, 720x304, 1960 kb/s
Аудио: 48 kHz, AC3 Dolby Digital, 2/0 (L,R) ch, ~384 kbps
Семпл: Скачать
Код: Выделить всё
Общее
Полное имя                               : D:\Релизы\Новогодний.отрыв.2015.WEB-DLRip.nnm-club.avi
Формат                                   : AVI
Формат/Информация                        : Audio Video Interleave
Размер файла                             : 1,37 Гбайт
Продолжительность                        : 1 ч. 23 м.
Общий поток                              : 2354 Кбит/сек
Программа кодирования                    : VirtualDubMod 1.5.10.3 | (build 2550/release)
Библиотека кодирования                   : VirtualDubMod build 2550/release

Видео
Идентификатор                            : 0
Формат                                   : MPEG-4 Visual
Профиль формата                          : Advanced [email protected]
Параметр BVOP формата                    : 2
Параметр QPel формата                    : Нет
Параметр GMC формата                     : Без точки перехода
Параметр матрицы формата                 : Default (MPEG)
Идентификатор кодека                     : XVID
Идентификатор кодека/Подсказка           : XviD
Продолжительность                        : 1 ч. 23 м.
Битрейт                                  : 1960 Кбит/сек
Ширина                                   : 720 пикселей
Высота                                   : 304 пикселя
Соотношение сторон                       : 2,35:1
Частота кадров                           : 25,000 кадров/сек
Цветовое пространство                    : YUV
Субдискретизация насыщенности            : 4:2:0
Битовая глубина                          : 8 бит
Тип развёртки                            : Прогрессивная
Метод сжатия                             : С потерями
Бит/(Пиксели*Кадры)                      : 0.358
Размер потока                            : 1,14 Гбайт (83%)
Библиотека кодирования                   : XviD 1.2.1 (UTC 2008-12-04)

Аудио
Идентификатор                            : 1
Формат                                   : AC-3
Формат/Информация                        : Audio Coding 3
Расширение режима                        : CM (complete main)
Параметр Endianness формата              : Big
Идентификатор кодека                     : 2000
Продолжительность                        : 1 ч. 23 м.
Вид битрейта                             : Постоянный
Битрейт                                  : 384 Кбит/сек
Каналы                                   : 2 канала
Расположение каналов                     : Front: L R
Частота                                  : 48,0 КГц
Метод сжатия                             : С потерями
Размер потока                            : 228 Мбайт (16%)
Выравнивание                             : Разделение по промежуткам
Продолжительность промежутка             : 40  мс. (1,00 видеокадр)
Время предзагрузки промежутка            : 500  мс.

Скриншоты:

Время раздачи: 24/7, до 5 скачавших.
   
Торрент: Зарегистрирован [06 фев 2016, 15:10] Скачать торрент
Скачать торрент
О MediaGet
[ Размер 14.4 КБ / Просмотров 114 ]

Статус:
 
Приватный: Нет (DHT включён)
Размер: 1.37 ГБ (1 466 963 968 байт)
   
Аватара пользователя

Администратор
Администратор
 
Раздал: 2.33 ПБ
Скачал: 1.02 ПБ
Ратио: 2.281
Сообщения: 3723
Зарегистрирован: 07 май 2010, 17:29
Medals: 1
Лучший релиз за месяц (1)
  • Личное сообщение
  • ICQ

  • Похожие торренты
    Ответы
    Просмотры
    Последнее сообщение

Вернуться в Зарубежные фильмы (Rip's)

Кто сейчас на конференции

Зарегистрированные пользователи: bigcatwar

Ресурс не предоставляет электронные версии произведений, а занимается лишь коллекционированием и каталогизацией ссылок, присылаемых и публикуемых на форуме нашими читателями. Если вы являетесь правообладателем какого-либо представленного материала и не желаете чтобы ссылка на него находилась в нашем каталоге, свяжитесь с нами и мы незамедлительно удалим её. Файлы для обмена на трекере предоставлены пользователями сайта, и администрация не несёт ответственности за их содержание. Просьба не заливать файлы, защищенные авторскими правами, а также файлы нелегального содержания!
cron