Кербела / Karbala (2015) DVDRip скачать торрент

Мировая классика кино, Rip, Рипы, Зарубежные фильмы

Модератор: Модераторы видео

  • Статистика раздачи
Размер: 1.43 ГБ   |  Зарегистрирован: 05 фев 2016, 03:36   |   .torrent скачан: 3 раз
Сидеров: 202  [ 0 байт/сек ]     Личеров: 9  [ 0 байт/сек ]  
Список файлов : Кто скачал : Раздают : Скачивают : Кто благодарил : История : Не раздающие : Запрашивали сидеров : Внешние трекеры 
  

Кербела / Karbala (2015) DVDRip

Сообщение Админ » 05 фев 2016, 03:36

Кербела / Karbala (2015) DVDRip

Производство: Польша, Болгария, Miramar Film, Next Film
Жанр: Драма, Военный

Режиссер: Кшиштоф Лукашевич, Justyna Kapuscinska, Марчин Ломницкий
Актеры: Бартоломей Топа, Антони Круликовский, Христо Шопов, Атир Адель, Лешек Лихота, Михал Журавский, Томаш Шухардт, Лукаш Симлят, Петр Гловацкий

Описание:
2004 год, операция "Иракская свобода". Иракские повстанцы, лояльные шиитскому лидеру аль-Садру, начинают мятеж. Городская мэрия Кербелы находится в осаде, ее защищать вынуждены 80 поляков и болгар, у которых боеприпасов и оружия только на 72 часа.


Дата мировой премьеры: 11 сентября 2015

Продолжительность: 01:50:42
Качество видео: DVDRip
Перевод: Двуголосый закадровый, любительский (DeadSno&Den904 по переводу Professor'a)
Субтитры: Отсутствуют
Реклама: Отсутствует

Видео: Xvid, 720х304, ~1647 Кбит/с
Аудио: AC3, 2 ch, 192 Кбит/с
Семпл: Скачать
Код:
Код: Выделить всё
General
Complete name                  : D:\Downloading\Karbala.2015.DVDRip.XviD.RU.avi
Format                         : AVI
Format/Info                    : Audio Video Interleave
File size                      : 1.43 GiB
Duration                       : 1h 50mn
Overall bit rate               : 1 849 Kbps

Video
ID                             : 0
Format                         : MPEG-4 Visual
Format profile                 : Advanced [email protected]
Format settings, BVOP          : 2
Format settings, QPel          : No
Format settings, GMC           : No warppoints
Format settings, Matrix        : Default (H.263)
Codec ID                       : XVID
Codec ID/Hint                  : XviD
Duration                       : 1h 50mn
Bit rate                       : 1 647 Kbps
Width                          : 720 pixels
Height                         : 304 pixels
Display aspect ratio           : 2.35:1
Frame rate                     : 25.000 fps
Color space                    : YUV
Chroma subsampling             : 4:2:0
Bit depth                      : 8 bits
Scan type                      : Progressive
Compression mode               : Lossy
Bits/(Pixel*Frame)             : 0.301
Stream size                    : 1.27 GiB (89%)
Writing library                : XviD 67

Audio
ID                             : 1
Format                         : AC-3
Format/Info                    : Audio Coding 3
Mode extension                 : CM (complete main)
Format settings, Endianness    : Big
Codec ID                       : 2000
Duration                       : 1h 50mn
Source duration                : 1h 50mn
Bit rate mode                  : Constant
Bit rate                       : 192 Kbps
Channel(s)                     : 2 channels
Channel positions              : Front: L R
Sampling rate                  : 48.0 KHz
Frame rate                     : 31.250 fps (1536 spf)
Bit depth                      : 16 bits
Compression mode               : Lossy
Stream size                    : 152 MiB (10%)
Alignment                      : Aligned on interleaves
Interleave, duration           : 40 ms (1.00 video frame)

Скриншоты:



Время раздачи: 24/7 (до 10 скачавших)
   
Торрент: Зарегистрирован [05 фев 2016, 03:36] Скачать торрент
Скачать торрент
О MediaGet
[ Размер 15.07 КБ / Просмотров 122 ]

Статус:
 
Приватный: Нет (DHT включён)
Размер: 1.43 ГБ (1 534 955 844 байт)
   
Аватара пользователя

Администратор
Администратор
 
Раздал: 2.33 ПБ
Скачал: 1.02 ПБ
Ратио: 2.281
Сообщения: 3723
Зарегистрирован: 07 май 2010, 17:29
Medals: 1
Лучший релиз за месяц (1)
  • Личное сообщение
  • ICQ

  • Похожие торренты
    Ответы
    Просмотры
    Последнее сообщение

Вернуться в Зарубежные фильмы (Rip's)

Кто сейчас на конференции

Зарегистрированные пользователи: bigcatwar

Ресурс не предоставляет электронные версии произведений, а занимается лишь коллекционированием и каталогизацией ссылок, присылаемых и публикуемых на форуме нашими читателями. Если вы являетесь правообладателем какого-либо представленного материала и не желаете чтобы ссылка на него находилась в нашем каталоге, свяжитесь с нами и мы незамедлительно удалим её. Файлы для обмена на трекере предоставлены пользователями сайта, и администрация не несёт ответственности за их содержание. Просьба не заливать файлы, защищенные авторскими правами, а также файлы нелегального содержания!
cron