Легенда о Барни Томсоне / The Legend of Barney Thomson (2015) DVDRip [VO] скачать торрент

Мировая классика кино, Rip, Рипы, Зарубежные фильмы

Модератор: Модераторы видео

  • Статистика раздачи
Размер: 1.37 ГБ   |  Зарегистрирован: 05 фев 2016, 03:32   |   .torrent скачан: 2 раз
Сидеров: 142  [ 0 байт/сек ]     Личеров: 0  [ 0 байт/сек ]  
Список файлов : Кто скачал : Раздают : Скачивают : Кто благодарил : История : Не раздающие : Запрашивали сидеров : Внешние трекеры 
  

Легенда о Барни Томсоне / The Legend of Barney Thomson (2015) DVDRip [VO]

Сообщение Админ » 05 фев 2016, 03:32

Легенда о Барни Томсоне / The Legend of Barney Thomson (2015) DVDRip

Производство: Канада, Великобритания
Жанр: Криминал, Комедия

Режиссер: Роберт Карлайл
Продюсер: Холли Бридсон, Брайан Коффи, Ричард Кауэн
Актеры: Роберт Карлайл, Эмма Томпсон, Рэй Уинстон, Том Кортни, Джеймс Космо, Эшли Дженсен, Мартин Компстон, Кевин Гатри, Стивен МакКоул, Брайан Петтифер

Описание:
Простой парикмахер из Глазго Барни Томсон живет обыденной жизнью, в которой нет ничего интересного. Но ему хочется что-то изменить в ней. Такой момент наступает совершенно неожиданно: в процессе ссоры со своим начальником Барни случайно убивает его. Это наводит на него панику. Как теперь поступить? На этот вопрос он просит помощи у своей мамы. Она совершенно спокойно объясняет сыну план действий...


Дата мировой премьеры: 17 июня 2015

Продолжительность: 01:32:19
Качество видео: DVDRip
Перевод: Одноголосый закадровый, любительский
Озвучка / Автор перевода: VANO
Вид субтитров: Отсутствуют

Видео: Xvid, 720x304, ~1917 Кбит/с
Аудио: AC3, 2 ch, 192 Кбит/с, CBR
Семпл: Скачать
Код:
Код: Выделить всё
Общее
Полное имя                               : D:\KINO 3\ABCEICO\Legenda.O.Barni.Tompsone.avi
Формат                                   : AVI
Формат/Информация                        : Audio Video Interleave
Размер файла                             : 1,37 Гбайт
Продолжительность                        : 1 ч. 32 м.
Общий поток                              : 2119 Кбит/сек
Программа кодирования                    : VirtualDubMod 1.5.10.3 | (build 2550/release)
Библиотека кодирования                   : VirtualDubMod build 2550/release

Видео
Идентификатор                            : 0
Формат                                   : MPEG-4 Visual
Профиль формата                          : Advanced [email protected]
Параметр BVOP формата                    : 2
Параметр QPel формата                    : Нет
Параметр GMC формата                     : Без точки перехода
Параметр матрицы формата                 : Default (MPEG)
Идентификатор кодека                     : XVID
Идентификатор кодека/Подсказка           : XviD
Продолжительность                        : 1 ч. 32 м.
Битрейт                                  : 1917 Кбит/сек
Ширина                                   : 720 пикселей
Высота                                   : 304 пикселя
Соотношение сторон                       : 2,35:1
Частота кадров                           : 25,000 кадров/сек
Цветовое пространство                    : YUV
Субдискретизация насыщенности            : 4:2:0
Битовая глубина                          : 8 бит
Тип развёртки                            : Прогрессивная
Метод сжатия                             : С потерями
Бит/(Пиксели*Кадры)                      : 0.350
Размер потока                            : 1,24 Гбайт (90%)
Библиотека кодирования                   : XviD 1.2.1 (UTC 2008-12-04)

Аудио
Идентификатор                            : 1
Формат                                   : AC-3
Формат/Информация                        : Audio Coding 3
Расширение режима                        : CM (complete main)
Параметр Endianness формата              : Big
Идентификатор кодека                     : 2000
Продолжительность                        : 1 ч. 32 м.
Вид битрейта                             : Постоянный
Битрейт                                  : 192 Кбит/сек
Каналы                                   : 2 канала
Расположение каналов                     : Front: L R
Частота                                  : 48,0 КГц
Битовая глубина                          : 16 бит
Метод сжатия                             : С потерями
Размер потока                            : 127 Мбайт (9%)
Выравнивание                             : Разделение по промежуткам
Продолжительность промежутка             : 40  мс. (1,00 видеокадр)
Время предзагрузки промежутка            : 500  мс.

Скриншоты:



Время раздачи: С 09:00 до 23:30 до 5 скачавших
   
Торрент: Зарегистрирован [05 фев 2016, 03:32] Скачать торрент
Скачать торрент
О MediaGet
[ Размер 14.51 КБ / Просмотров 116 ]

Статус:
 
Приватный: Нет (DHT включён)
Размер: 1.37 ГБ (1 467 080 704 байт)
   
Аватара пользователя

Администратор
Администратор
 
Раздал: 2.33 ПБ
Скачал: 1.02 ПБ
Ратио: 2.281
Сообщения: 3723
Зарегистрирован: 07 май 2010, 17:29
Medals: 1
Лучший релиз за месяц (1)
  • Личное сообщение
  • ICQ

Вернуться в Зарубежные фильмы (Rip's)

Кто сейчас на конференции

Зарегистрированные пользователи: bigcatwar, ванюшка

Ресурс не предоставляет электронные версии произведений, а занимается лишь коллекционированием и каталогизацией ссылок, присылаемых и публикуемых на форуме нашими читателями. Если вы являетесь правообладателем какого-либо представленного материала и не желаете чтобы ссылка на него находилась в нашем каталоге, свяжитесь с нами и мы незамедлительно удалим её. Файлы для обмена на трекере предоставлены пользователями сайта, и администрация не несёт ответственности за их содержание. Просьба не заливать файлы, защищенные авторскими правами, а также файлы нелегального содержания!
cron