Упадок / Decadencia (2015) HDRip скачать торрент

Мировая классика кино, Rip, Рипы, Зарубежные фильмы

Модератор: Модераторы видео

  • Статистика раздачи
Размер: 1.46 ГБ   |  Зарегистрирован: 05 фев 2016, 03:29   |   .torrent скачан: 7 раз
Сидеров: 261  [ 0 байт/сек ]     Личеров: 20  [ 0 байт/сек ]  
Список файлов : Кто скачал : Раздают : Скачивают : Кто благодарил : История : Не раздающие : Запрашивали сидеров : Внешние трекеры 
  

Упадок / Decadencia (2015) HDRip

Сообщение Админ » 05 фев 2016, 03:29

Упадок / Decadencia (2015) HDRip

Производство: Мексика / Three Great Lights Films
Жанр: Драма, Мелодрама

Режиссер: Хоакин Родригес
Актеры: Алехандро Эстрада, Натали Уманья, Роберто Паласуэлос,Хосе Луис Альтамирано, Илина Джудит Арана, Орландо Рамос Бесерра, Диана Кардона, Хуан Пабло Кастанеда, Элизабет Диас Гандара, Ромина Марен Гарсия

Описание:
Аннабель Болио-молодая и красивая модель, а Оскар Прац - блестящий предприниматель. Между ними вспыхивает искра от которого разгорается страстный роман, но их любовь быстро превращается в сексуальный кошмар...


Дата мировой премьеры: 22 ноября 2015

Продолжительность: 01:31:04
Качество видео: HDRip
Перевод: Двуголосый закадровый, любительский (Galina Vasyukova & datynet)
Субтитры: отсутствуют

Видео: Xvid, 704x368, ~1891 kbps
Аудио: AC3, 2 ch, 192 kbps, CBR | Русский (DVO)
Аудио: AC3, 2 ch, 192 kbps, CBR | Испанский
Семпл: Скачать
Код:
Код: Выделить всё
Формат : AVI
Формат/Информация : Audio Video Interleave
Размер файла : 1,46 Гбайт
Продолжительность : 1 ч. 31 м.
Общий поток : 2289 Кбит/сек
Программа кодирования : VirtualDubMod 1.5.10.3 | [url=http://www.virtualdub-fr.org]www.virtualdub-fr.org[/url] || (build 2550/release)
Библиотека кодирования : VirtualDubMod build 2550/release

Видео
Идентификатор : 0
Формат : MPEG-4 Visual
Профиль формата : Advanced [email protected]
Параметр BVOP формата : 1
Параметр QPel формата : Нет
Параметр GMC формата : Без точки перехода
Параметр матрицы формата : Выборочная
Идентификатор кодека : XVID
Идентификатор кодека/Подсказка : XviD
Продолжительность : 1 ч. 31 м.
Битрейт : 1891 Кбит/сек
Ширина : 704 пикселя
Высота : 368 пикселей
Соотношение сторон : 1,913
Частота кадров : 23,976 кадра/сек
Цветовое пространство : YUV
Субдискретизация насыщенности : 4:2:0
Битовая глубина : 8 бит
Тип развёртки : Прогрессивная
Метод сжатия : С потерями
Бит/(Пиксели*Кадры) : 0.304
Размер потока : 1,20 Гбайт (83%)
Библиотека кодирования : XviD 73

Аудио #1
Идентификатор : 1
Формат : AC-3
Формат/Информация : Audio Coding 3
Расширение режима : CM (complete main)
Параметр Endianness формата : Big
Идентификатор кодека : 2000
Продолжительность : 1 ч. 31 м.
Вид битрейта : Постоянный
Битрейт : 192 Кбит/сек
Каналы : 2 канала
Расположение каналов : Front: L R
Частота : 48,0 КГц
Метод сжатия : С потерями
Размер потока : 125 Мбайт (8%)
Выравнивание : Разделение по промежуткам
Продолжительность промежутка : 42 мс. (1,00 видеокадр)
Время предзагрузки промежутка : 500 мс.

Аудио #2
Идентификатор : 2
Формат : AC-3
Формат/Информация : Audio Coding 3
Расширение режима : CM (complete main)
Параметр Endianness формата : Big
Идентификатор кодека : 2000
Продолжительность : 1 ч. 31 м.
Вид битрейта : Постоянный
Битрейт : 192 Кбит/сек
Каналы : 2 канала
Расположение каналов : Front: L R
Частота : 48,0 КГц
Метод сжатия : С потерями
Размер потока : 125 Мбайт (8%)
Выравнивание : Разделение по промежуткам
Продолжительность промежутка : 42 мс. (1,00 видеокадр)
Время предзагрузки промежутка : 500 мс.

Скриншоты:



Время раздачи: По мере возможности..(до первых скачавших)
   
Торрент: Зарегистрирован [05 фев 2016, 03:29] Скачать торрент
Скачать торрент
О MediaGet
[ Размер 15.33 КБ / Просмотров 106 ]

Статус:
 
Приватный: Нет (DHT включён)
Размер: 1.46 ГБ (1 563 426 816 байт)
   
Аватара пользователя

Администратор
Администратор
 
Раздал: 2.33 ПБ
Скачал: 1.02 ПБ
Ратио: 2.281
Сообщения: 3723
Зарегистрирован: 07 май 2010, 17:29
Medals: 1
Лучший релиз за месяц (1)
  • Личное сообщение
  • ICQ

  • Похожие торренты
    Ответы
    Просмотры
    Последнее сообщение

Вернуться в Зарубежные фильмы (Rip's)

Кто сейчас на конференции

Зарегистрированные пользователи: bigcatwar, ванюшка

Ресурс не предоставляет электронные версии произведений, а занимается лишь коллекционированием и каталогизацией ссылок, присылаемых и публикуемых на форуме нашими читателями. Если вы являетесь правообладателем какого-либо представленного материала и не желаете чтобы ссылка на него находилась в нашем каталоге, свяжитесь с нами и мы незамедлительно удалим её. Файлы для обмена на трекере предоставлены пользователями сайта, и администрация не несёт ответственности за их содержание. Просьба не заливать файлы, защищенные авторскими правами, а также файлы нелегального содержания!
cron