Отступление / Backtrack (2015) WEB-DLRip скачать торрент

Мировая классика кино, Rip, Рипы, Зарубежные фильмы

Модератор: Модераторы видео

  • Статистика раздачи
Размер: 1.31 ГБ   |  Зарегистрирован: 03 фев 2016, 21:20   |   .torrent скачан: 4 раз
Сидеров: 269  [ 0 байт/сек ]     Личеров: 39  [ 0 байт/сек ]  
Список файлов : Кто скачал : Раздают : Скачивают : Кто благодарил : История : Не раздающие : Запрашивали сидеров : Внешние трекеры 
  

Отступление / Backtrack (2015) WEB-DLRip

Сообщение Админ » 03 фев 2016, 21:20

Отступление / Backtrack (2015) WEB-DLRip

Производство: Австралия
Жанр: Триллер, Детектив

Режиссер: Майкл Петрони
Продюсер: Антония Барнард, Джэми Хилтон, Майкл Петрони
Актеры: Эдриан Броуди, Сэм Нилл, Брюс Спенс, Робин МакЛиви, Дженни Бейрд, Анна Лизе Филлипс, Хлоя Бэйлисс, Ольга Миллер, Малкольм Кеннард

Описание:
Жизнь психолога Питера Бауэрса меняется не в лучшую сторону, когда он понимает, что его пациенты — призраки людей, умерших в результате несчастного случая 20 лет назад. Боясь сойти с ума, Питер возвращается в свой родной город, где раскрывает ужасающую правду, которую может исправить только он.


Дата мировой премьеры: 18 апреля 2015

Продолжительность: 01:26:06
Качество видео: WEB-DLRip
Перевод: Двуголосый закадровый, любительский (Parovoz Production)
Реклама: Отсутствует

Видео: Xvid, 720x304, ~1980 Кбит/с
Аудио: AC3, 2 ch, 192 Кбит/с, CBR
Код:
Код: Выделить всё
Общее
Полное имя                               : D:\FILMЬl\FOX DAMAGED\Otstuplenie.RU.avi
Формат                                   : AVI
Формат/Информация                        : Audio Video Interleave
Размер файла                             : 1,31 Гбайт
Продолжительность                        : 1 ч. 26 м.
Общий поток                              : 2182 Кбит/сек
Программа кодирования                    : VirtualDubMod 1.5.10.2 (build 2542/release)
Библиотека кодирования                   : VirtualDubMod build 2542/release

Видео
Идентификатор                            : 0
Формат                                   : MPEG-4 Visual
Профиль формата                          : Advanced [email protected]
Параметр BVOP формата                    : 2
Параметр QPel формата                    : Нет
Параметр GMC формата                     : Без точки перехода
Параметр матрицы формата                 : Default (H.263)
Режим смешивания                         : Сжатый битовый поток
Идентификатор кодека                     : XVID
Идентификатор кодека/Подсказка           : XviD
Продолжительность                        : 1 ч. 26 м.
Битрейт                                  : 1980 Кбит/сек
Ширина                                   : 720 пикселей
Высота                                   : 304 пикселя
Соотношение сторон                       : 2,35:1
Частота кадров                           : 25,000 кадров/сек
Цветовое пространство                    : YUV
Субдискретизация насыщенности            : 4:2:0
Битовая глубина                          : 8 бит
Тип развёртки                            : Прогрессивная
Метод сжатия                             : С потерями
Бит/(Пиксели*Кадры)                      : 0.362
Размер потока                            : 1,19 Гбайт (91%)
Библиотека кодирования                   : XviD 73

Аудио
Идентификатор                            : 1
Формат                                   : AC-3
Формат/Информация                        : Audio Coding 3
Расширение режима                        : CM (complete main)
Параметр Endianness формата              : Big
Идентификатор кодека                     : 2000
Продолжительность                        : 1 ч. 26 м.
Вид битрейта                             : Постоянный
Битрейт                                  : 192 Кбит/сек
Каналы                                   : 2 канала
Расположение каналов                     : Front: L R
Частота                                  : 48,0 КГц
Метод сжатия                             : С потерями
Размер потока                            : 118 Мбайт (9%)
Выравнивание                             : Разделение по промежуткам
Продолжительность промежутка             : 40  мс. (1,00 видеокадр)
Время предзагрузки промежутка            : 500  мс.

Скриншоты:



Время раздачи: С 09:00 до 23:30 до 5 скачавших
   
Торрент: Зарегистрирован [03 фев 2016, 21:20] Скачать торрент
Скачать торрент
О MediaGet
[ Размер 13.9 КБ / Просмотров 90 ]

Статус:
 
Приватный: Нет (DHT включён)
Размер: 1.31 ГБ (1 409 132 544 байт)
   
Аватара пользователя

Администратор
Администратор
 
Раздал: 2.33 ПБ
Скачал: 1.02 ПБ
Ратио: 2.281
Сообщения: 3723
Зарегистрирован: 07 май 2010, 17:29
Medals: 1
Лучший релиз за месяц (1)
  • Личное сообщение
  • ICQ

  • Похожие торренты
    Ответы
    Просмотры
    Последнее сообщение

Вернуться в Зарубежные фильмы (Rip's)

Кто сейчас на конференции

Зарегистрированные пользователи: bigcatwar, ванюшка

Ресурс не предоставляет электронные версии произведений, а занимается лишь коллекционированием и каталогизацией ссылок, присылаемых и публикуемых на форуме нашими читателями. Если вы являетесь правообладателем какого-либо представленного материала и не желаете чтобы ссылка на него находилась в нашем каталоге, свяжитесь с нами и мы незамедлительно удалим её. Файлы для обмена на трекере предоставлены пользователями сайта, и администрация не несёт ответственности за их содержание. Просьба не заливать файлы, защищенные авторскими правами, а также файлы нелегального содержания!
cron