Допинг / The Program (2015) HDRip [H.264] скачать торрент

Мировая классика кино, Rip, Рипы, Зарубежные фильмы

Модератор: Модераторы видео

  • Статистика раздачи
Размер: 1.98 ГБ   |  Зарегистрирован: 01 фев 2016, 04:07   |   .torrent скачан: 0 раз
Сидеров: 57  [ 0 байт/сек ]     Личеров: 1  [ 0 байт/сек ]  
Список файлов : Кто скачал : Раздают : Скачивают : Кто благодарил : История : Не раздающие : Запрашивали сидеров : Внешние трекеры 
  

Допинг / The Program (2015) HDRip [H.264]

Сообщение Админ » 01 фев 2016, 04:07

Допинг / The Program (2015) HDRip [H.264]

Производство: Великобритания, Франция
Жанр: Драма, биография, спорт

Режиссер: Стивен Фрирз
Актеры: Бен Фостер, Крис О Дауд, Джесси Племонс, Ли Пейс, Дастин Хоффман, Лаура Доннелли, Брайан Гринберг, Элейн Кэссиди, Гийом Кане, Дени Меноше

Описание:
Ирландский спортивный журналист убежден в том, что Лэнс Армстронг во время своих победных выступлений на Тур де Франс использовал запрещенные вещества. С этими убеждениями, он начинает искать доказательства, которые разоблачат Армстронга.


Дата мировой премьеры: 13 сентября 2015
Дата премьеры в России: 18 февраля 2016

Продолжительность: 01:43:13
Качество видео: HDRip
Перевод: Двуголосый закадровый, любительский
Вид субтитров: Отсутствуют
Реклама: Отсутствует

Видео: AVC/H.264, 1024x432, ~2300 Кбит/с
Аудио : AC3, 2 ch, 448 Кбит/с - Русский
Семпл: Скачать
Код:
Код: Выделить всё
General
Unique ID                      : 240749248152092206555564528753194961382 (0xB51E9E5D41B07F57AE4C485D9E3A09E6)
Complete name                  : D:\Downloading\Doping.2015.HDRip-AVC.mkv
Format                         : Matroska
Format version                 : Version 4 / Version 2
File size                      : 1.98 GiB
Duration                       : 1h 43mn
Overall bit rate               : 2 745 Kbps
Encoded date                   : UTC 2016-01-28 18:13:16
Writing application            : mkvmerge v8.8.0 ('Wind at my back') 64bit
Writing library                : libebml v1.3.3 + libmatroska v1.4.4

Video
ID                             : 1
Format                         : AVC
Format/Info                    : Advanced Video Codec
Format profile                 :
Format settings, CABAC         : Yes
Format settings, ReFrames      : 4 frames
Codec ID                       : V_MPEG4/ISO/AVC
Duration                       : 1h 43mn
Bit rate                       : 2 300 Kbps
Width                          : 1 024 pixels
Height                         : 432 pixels
Display aspect ratio           : 2.40:1
Frame rate mode                : Constant
Frame rate                     : 24.000 fps
Color space                    : YUV
Chroma subsampling             : 4:2:0
Bit depth                      : 8 bits
Scan type                      : Progressive
Bits/(Pixel*Frame)             : 0.217
Stream size                    : 1.65 GiB (84%)
Writing library                : x264 core 146 r2538 121396c
Encoding settings              : cabac=1 / ref=3 / deblock=1:-2:-1 / analyse=0x3:0x133 / me=umh / subme=6 / psy=1 / psy_rd=1.00:0.20 / mixed_ref=1 / me_range=24 / chroma_me=1 / trellis=2 / 8x8dct=1 / cqm=0 / deadzone=21,11 / fast_pskip=1 / chroma_qp_offset=-3 / threads=18 / lookahead_threads=3 / sliced_threads=0 / nr=0 / decimate=1 / interlaced=0 / bluray_compat=0 / constrained_intra=0 / bframes=3 / b_pyramid=2 / b_adapt=2 / b_bias=0 / direct=3 / weightb=1 / open_gop=0 / weightp=2 / keyint=250 / keyint_min=23 / scenecut=40 / intra_refresh=0 / rc_lookahead=60 / rc=2pass / mbtree=1 / bitrate=2300 / ratetol=1.0 / qcomp=0.60 / qpmin=0 / qpmax=69 / qpstep=4 / cplxblur=20.0 / qblur=0.5 / ip_ratio=1.40 / aq=1:1.00
Language                       : English
Default                        : Yes
Forced                         : No

Audio
ID                             : 2
Format                         : AC-3
Format/Info                    : Audio Coding 3
Mode extension                 : CM (complete main)
Format settings, Endianness    : Big
Codec ID                       : A_AC3
Duration                       : 1h 43mn
Bit rate mode                  : Constant
Bit rate                       : 448 Kbps
Channel(s)                     : 2 channels
Channel positions              : Front: L R
Sampling rate                  : 48.0 KHz
Frame rate                     : 31.250 fps (1536 spf)
Compression mode               : Lossy
Stream size                    : 331 MiB (16%)
Language                       : Russian
Default                        : No
Forced                         : No


Скриншоты:



Время раздачи: 24/7 (до 10 скачавших)
   
Торрент: Зарегистрирован [01 фев 2016, 04:07] Скачать торрент
Скачать торрент
О MediaGet
[ Размер 20.47 КБ / Просмотров 70 ]

Статус:
 
Приватный: Нет (DHT включён)
Размер: 1.98 ГБ (2 125 087 411 байт)
   
Аватара пользователя

Администратор
Администратор
 
Раздал: 2.33 ПБ
Скачал: 1.02 ПБ
Ратио: 2.281
Сообщения: 3723
Зарегистрирован: 07 май 2010, 17:29
Medals: 1
Лучший релиз за месяц (1)
  • Личное сообщение
  • ICQ

  • Похожие торренты
    Ответы
    Просмотры
    Последнее сообщение

Вернуться в Зарубежные фильмы (Rip's)

Кто сейчас на конференции

Зарегистрированные пользователи: bigcatwar, ванюшка

Ресурс не предоставляет электронные версии произведений, а занимается лишь коллекционированием и каталогизацией ссылок, присылаемых и публикуемых на форуме нашими читателями. Если вы являетесь правообладателем какого-либо представленного материала и не желаете чтобы ссылка на него находилась в нашем каталоге, свяжитесь с нами и мы незамедлительно удалим её. Файлы для обмена на трекере предоставлены пользователями сайта, и администрация не несёт ответственности за их содержание. Просьба не заливать файлы, защищенные авторскими правами, а также файлы нелегального содержания!
cron