Срочно выйду замуж (2015) WEB-DL [H.264/1080p-LQ] скачать торрент

Мировая классика кино, Rip, Рипы, Зарубежные фильмы

Модератор: Модераторы видео

  • Статистика раздачи
Размер: 3.61 ГБ   |  Зарегистрирован: 01 фев 2016, 03:58   |   .torrent скачан: 5 раз
Сидеров: 1119  [ 0 байт/сек ]     Личеров: 98  [ 0 байт/сек ]  
Список файлов : Кто скачал : Раздают : Скачивают : Кто благодарил : История : Не раздающие : Запрашивали сидеров : Внешние трекеры 
  

Срочно выйду замуж (2015) WEB-DL [H.264/1080p-LQ]

Сообщение Админ » 01 фев 2016, 03:59

Срочно выйду замуж (2015) WEB-DL [H.264/1080p-LQ]

Производство: Россия / Art Pictures Studio, ВайТ Медиа
Жанр: Комедия, Мелодрама

Режиссер: Сергей Чекалов
Продюсер: Фёдор Бондарчук, Тимур Вайнштейн, Дмитрий Рудовский
Актеры: Юлия Ковальчук, Алексей Чумаков, Екатерина Маликова, Сергей Бурунов, Ольга Прокофьева, Вячеслав Гришечкин, Нонна Гришаева, Анатолий Белый, Алика Смехова, Эвклид Кюрдзидис

Описание:
Женя — редактор-трудоголик, Стас — светский фотограф. Она амбициозна, а у него по жизни — ни задачи, ни проблемы. Женя хочет и может стать главным редактором журнала, но для этого у нее срочно должен появиться супруг! Условие акционеров издания — семейная аудитория нуждается в семейном руководителе. И на решение этой задачи у девушки есть всего неделя. Стас берется помочь девушке, в картотеке у модного фотографа есть немало холостяков, которые вполне могли бы подойти на роль мужа. Но неожиданно Женя понимает, что совсем не расчетлива, а Стас с удивлением обнаруживает, что влюблен.


Дата премьеры в России: 31 декабря 2015, «Централ Партнершип»

Продолжительность: 01:43:33
Качество видео: WEB-DL 1080p-LQ
Перевод: Не требуется (русский) iTunes
Вид субтитров: Отсутствуют

Видео: AVC/H.264, 1912x800, ~4609 kb/s
Аудио: AC3, 6 ch, 384 kb/s
Семпл: Скачать
Код:
Код: Выделить всё
Общее
Уникальный идентификатор                 : 237187958992331188089028942413619545160 (0xB270BD409C86EBC2ABC7ECB925004448)
Полное имя                               : Srochno.Viydu.Zamush.2015.O.WEB-DL.1080p.nnm-club.mkv
Формат                                   : Matroska
Версия формата                           : Version 4 / Version 2
Размер файла                             : 3,61 Гбайт
Продолжительность                        : 1 ч. 43 м.
Общий поток                              : 4995 Кбит/сек
Дата кодирования                         : UTC 2016-01-30 19:14:09
Программа кодирования                    : mkvmerge v8.3.0 ('Over the Horizon') 64bit
Библиотека кодирования                   : libebml v1.3.1 + libmatroska v1.4.2

Видео
Идентификатор                            : 1
Формат                                   : AVC
Формат/Информация                        : Advanced Video Codec
Профиль формата                          : [email protected]
Параметр CABAC формата                   : Да
Параметр ReFrames формата                : 5 кадров
Идентификатор кодека                     : V_MPEG4/ISO/AVC
Продолжительность                        : 1 ч. 43 м.
Битрейт                                  : 4609 Кбит/сек
Ширина                                   : 1912 пикселей
Высота                                   : 800 пикселей
Соотношение сторон                       : 2,40:1
Режим частоты кадров                     : Постоянный
Частота кадров                           : 25,000 кадров/сек
Цветовое пространство                    : YUV
Субдискретизация насыщенности            : 4:2:0
Битовая глубина                          : 8 бит
Тип развёртки                            : Прогрессивная
Бит/(Пиксели*Кадры)                      : 0.121
Размер потока                            : 3,33 Гбайт (92%)
Язык                                     : English
Default                                  : Да
Forced                                   : Нет
colour_range                             : Limited
Основные цвета                           : BT.709
Характеристики трансфера                 : BT.709
Коэффициенты матрицы                     : BT.709

Аудио
Идентификатор                            : 2
Формат                                   : AC-3
Формат/Информация                        : Audio Coding 3
Расширение режима                        : CM (complete main)
Параметр Endianness формата              : Big
Идентификатор кодека                     : A_AC3
Продолжительность                        : 1 ч. 43 м.
Вид битрейта                             : Постоянный
Битрейт                                  : 384 Кбит/сек
Каналы                                   : 6 каналов
Расположение каналов                     : Front: L C R, Side: L R, LFE
Частота                                  : 48,0 КГц
Частота кадров                           : 31,250 кадров/сек (1536 spf)
Метод сжатия                             : С потерями
Размер потока                            : 284 Мбайт (8%)
Язык                                     : Russian
Default                                  : Да
Forced                                   : Нет

Меню
00:00:00.000                             : en:1
00:09:00.000                             : en:2
00:18:28.000                             : en:3
00:28:34.000                             : en:4
00:37:27.000                             : en:5
00:46:09.000                             : en:6
00:56:35.000                             : en:7
01:05:17.000                             : en:8
01:13:46.000                             : en:9
01:21:27.000                             : en:10
01:29:53.000                             : en:11
01:38:22.000                             : en:12

Скриншоты:

   
Торрент: Зарегистрирован [01 фев 2016, 03:58] Скачать торрент
Скачать торрент
О MediaGet
[ Размер 18.89 КБ / Просмотров 92 ]

Статус:
 
Приватный: Нет (DHT включён)
Размер: 3.61 ГБ (3 879 503 550 байт)
   
Аватара пользователя

Администратор
Администратор
 
Раздал: 2.33 ПБ
Скачал: 1.02 ПБ
Ратио: 2.281
Сообщения: 3723
Зарегистрирован: 07 май 2010, 17:29
Medals: 1
Лучший релиз за месяц (1)
  • Личное сообщение
  • ICQ

  • Похожие торренты
    Ответы
    Просмотры
    Последнее сообщение

Вернуться в Зарубежные фильмы (Rip's)

Кто сейчас на конференции

Зарегистрированные пользователи: bigcatwar, ванюшка

Ресурс не предоставляет электронные версии произведений, а занимается лишь коллекционированием и каталогизацией ссылок, присылаемых и публикуемых на форуме нашими читателями. Если вы являетесь правообладателем какого-либо представленного материала и не желаете чтобы ссылка на него находилась в нашем каталоге, свяжитесь с нами и мы незамедлительно удалим её. Файлы для обмена на трекере предоставлены пользователями сайта, и администрация не несёт ответственности за их содержание. Просьба не заливать файлы, защищенные авторскими правами, а также файлы нелегального содержания!
cron