Иерусалим / Jeruzalem (2015) BDRip скачать торрент

Мировая классика кино, Rip, Рипы, Зарубежные фильмы

Модератор: Модераторы видео

  • Статистика раздачи
Размер: 1.46 ГБ   |  Зарегистрирован: 31 янв 2016, 00:52   |   .torrent скачан: 14 раз
Сидеров: 1196  [ 0 байт/сек ]     Личеров: 199  [ 0 байт/сек ]  
Список файлов : Кто скачал : Раздают : Скачивают : Кто благодарил : История : Не раздающие : Запрашивали сидеров : Внешние трекеры 
  

Иерусалим / Jeruzalem (2015) BDRip

Сообщение Админ » 31 янв 2016, 00:52

Иерусалим / Jeruzalem (2015) BDRip

Производство: Израиль / Epic Pictures Group
Жанр: Ужасы

Режиссер: Дорон Пас / Doron Paz, Йоав Пас / Yoav Paz
Продюсер: Шакед Беренсон, Ури Леванон, Rotem Levim
Актеры: Яэль Гробглас, Йон Тумаркин, Danielle Jadelyn, Dibi Ben-Yosef, Идо Ди Капуа, Джери Гендель, Том Грациани, Фарес Хананья, Стивен Хилдер, Йоав Кореш

Описание:
Трое студентов во время своей поездки в Иерусалим оказываются вовлеченными в библейский апокалипсис. Оказавшись в ловушке между древними стенами святого города, они должны найти выход из обрушившегося на них ада.


Рейтинг MPAA: R
Дата мировой премьеры: 10 июля 2015

Продолжительность: 01:34:10
Качество видео: BDRip
Перевод: Двуголосый закадровый, любительский
Озвучка / Автор перевода: Parovoz Production
Вид субтитров: Отсутствуют
Реклама: Отсутствует

Видео: Xvid, 720x304, ~1814 kb/s
Аудио 1: AC3, 192 kb/s, 2 ch - Русский
Аудио 2: AC3, 192 kb/s, 2 ch - Английский
Семпл: Скачать
Код:
Код: Выделить всё
General
Complete name                            : D:\Фильмы\Jeruzalem.2015.L2.BDRip.avi
Format                                   : AVI
Format/Info                              : Audio Video Interleave
File size                                : 1.46 GiB
Duration                                 : 1h 34mn
Overall bit rate                         : 2 212 Kbps
Writing application                      : VirtualDubMod 1.5.10.3 | [url=http://www.virtualdub-fr.org]www.virtualdub-fr.org[/url] || (build 2550/release)
Writing library                          : VirtualDubMod build 2550/release

Video
ID                                       : 0
Format                                   : MPEG-4 Visual
Format profile                           : Advanced [email protected]
Format settings, BVOP                    : 1
Format settings, QPel                    : No
Format settings, GMC                     : No warppoints
Format settings, Matrix                  : Custom
Codec ID                                 : XVID
Codec ID/Hint                            : XviD
Duration                                 : 1h 34mn
Bit rate                                 : 1 814 Kbps
Width                                    : 720 pixels
Height                                   : 304 pixels
Display aspect ratio                     : 2.35:1
Frame rate                               : 23.976 (23976/1000) fps
Color space                              : YUV
Chroma subsampling                       : 4:2:0
Bit depth                                : 8 bits
Scan type                                : Progressive
Compression mode                         : Lossy
Bits/(Pixel*Frame)                       : 0.346
Stream size                              : 1.19 GiB (82%)
Writing library                          : XviD 73

Audio #1
ID                                       : 1
Format                                   : AC-3
Format/Info                              : Audio Coding 3
Mode extension                           : CM (complete main)
Format settings, Endianness              : Big
Codec ID                                 : 2000
Duration                                 : 1h 34mn
Bit rate mode                            : Constant
Bit rate                                 : 192 Kbps
Channel(s)                               : 2 channels
Channel positions                        : Front: L R
Sampling rate                            : 48.0 KHz
Frame rate                               : 31.250 fps (1536 spf)
Compression mode                         : Lossy
Stream size                              : 129 MiB (9%)
Alignment                                : Split accross interleaves
Interleave, duration                     : 42 ms (1.00 video frame)
Interleave, preload duration             : 500 ms

Audio #2
ID                                       : 2
Format                                   : AC-3
Format/Info                              : Audio Coding 3
Mode extension                           : CM (complete main)
Format settings, Endianness              : Big
Codec ID                                 : 2000
Duration                                 : 1h 34mn
Bit rate mode                            : Constant
Bit rate                                 : 192 Kbps
Channel(s)                               : 2 channels
Channel positions                        : Front: L R
Sampling rate                            : 48.0 KHz
Frame rate                               : 31.250 fps (1536 spf)
Compression mode                         : Lossy
Stream size                              : 129 MiB (9%)
Alignment                                : Split accross interleaves
Interleave, duration                     : 42 ms (1.00 video frame)
Interleave, preload duration             : 500 ms

Скриншоты:



Время раздачи: 24/7 (круглосуточно)
   
Торрент: Зарегистрирован [31 янв 2016, 00:52] Скачать торрент
Скачать торрент
О MediaGet
[ Размер 15.32 КБ / Просмотров 90 ]

Статус:
 
Приватный: Нет (DHT включён)
Размер: 1.46 ГБ (1 562 357 760 байт)
   
Аватара пользователя

Администратор
Администратор
 
Раздал: 2.33 ПБ
Скачал: 1.02 ПБ
Ратио: 2.281
Сообщения: 3719
Зарегистрирован: 07 май 2010, 17:29
Medals: 1
Лучший релиз за месяц (1)
  • Личное сообщение
  • ICQ

  • Похожие торренты
    Ответы
    Просмотры
    Последнее сообщение

Вернуться в Зарубежные фильмы (Rip's)

Кто сейчас на конференции

Зарегистрированные пользователи: нет зарегистрированных пользователей

Ресурс не предоставляет электронные версии произведений, а занимается лишь коллекционированием и каталогизацией ссылок, присылаемых и публикуемых на форуме нашими читателями. Если вы являетесь правообладателем какого-либо представленного материала и не желаете чтобы ссылка на него находилась в нашем каталоге, свяжитесь с нами и мы незамедлительно удалим её. Файлы для обмена на трекере предоставлены пользователями сайта, и администрация не несёт ответственности за их содержание. Просьба не заливать файлы, защищенные авторскими правами, а также файлы нелегального содержания!
cron