Вокзал / Terminus (2015) WEB-DL [H.264/1080p-LQ] [VO] скачать торрент

Мировая классика кино, Rip, Рипы, Зарубежные фильмы

Модератор: Модераторы видео

  • Статистика раздачи
Размер: 3.48 ГБ   |  Зарегистрирован: 29 янв 2016, 19:00   |   .torrent скачан: 15 раз
Сидеров: 515  [ 0 байт/сек ]     Личеров: 11  [ 0 байт/сек ]  
Список файлов : Кто скачал : Раздают : Скачивают : Кто благодарил : История : Не раздающие : Запрашивали сидеров : Внешние трекеры 
  

Вокзал / Terminus (2015) WEB-DL [H.264/1080p-LQ] [VO]

Сообщение Админ » 29 янв 2016, 19:00

Вокзал / Terminus (2015) WEB-DL [H.264/1080p-LQ]

Производство: Австралия, Eclectik Vision, Maddfilms, Storm Alley Entertainment, Storm Vision Entertainment
Жанр: Фантастика

Режиссер: Марк Ферми
Актеры: Стив Ле Маркванд, Брен Фостер, Кэтерин Хикс, Уильям Эммонс, Брендан Клиркин, Джэй Кутрэ, Кендра Эпплтон, Тодд Ласанс, Винсент Андриано, Джон Мэннинг

Описание:
Оказавшись, в результате несчастного случая, на грани между жизнью и смертью, Дэвид Чемберлен делает беспрецедентное открытие, которое предопределит не только судьбу его семьи, но и судьбу всего человечества...


Дата мировой премьеры: 30 мая 2015

Продолжительность: 01:33:40
Качество видео: WEB-DL
Перевод: Одноголосый закадровый, любительский
Озвучка / Автор перевода: datynet
Предупреждение: Присутствует ненормативная лексика
Язык субтитров: Английский
Вид субтитров: Вшитые отключаемые
Реклама: Отсутствует

Видео: AVC/H.264, 1920x792, ~4485 Кбит/с
Аудио 1: AC3, 6 ch, 448 Кбит/с - Русский (datynet)
Аудио 2: AC3, 6 ch, 384 Кбит/с Английский (Оригинал)
Семпл: Скачать
Код:
Код: Выделить всё
General
Unique ID                      : 197880581807278903460517399918235374653 (0x94DE69EE3E0E77ACA76B84A0794C543D)
Complete name                  : D:\Downloading\Terminus.2015.1080p.WEB-DL.mkv
Format                         : Matroska
Format version                 : Version 4 / Version 2
File size                      : 3.48 GiB
Duration                       : 1h 33mn
Overall bit rate               : 5 319 Kbps
Movie name                     : Terminus.2015.1080p.WEB-DL.DD5.1.H264-FGT
Encoded date                   : UTC 2016-01-29 13:26:09
Writing application            : mkvmerge v8.5.1 ('Where you lead I will follow') 64bit
Writing library                : libebml v1.3.3 + libmatroska v1.4.4

Video
ID                             : 1
Format                         : AVC
Format/Info                    : Advanced Video Codec
Format profile                 : [email protected]
Format settings, CABAC         : Yes
Format settings, ReFrames      : 5 frames
Codec ID                       : V_MPEG4/ISO/AVC
Duration                       : 1h 33mn
Bit rate                       : 4 485 Kbps
Width                          : 1 920 pixels
Height                         : 792 pixels
Display aspect ratio           : 2.40:1
Frame rate mode                : Constant
Frame rate                     : 24.000 fps
Color space                    : YUV
Chroma subsampling             : 4:2:0
Bit depth                      : 8 bits
Scan type                      : Progressive
Bits/(Pixel*Frame)             : 0.123
Stream size                    : 2.93 GiB (84%)
Language                       : English
Default                        : Yes
Forced                         : No
Color range                    : Limited
Color primaries                : BT.709
Transfer characteristics       : BT.709
Matrix coefficients            : BT.709

Audio #1
ID                             : 2
Format                         : AC-3
Format/Info                    : Audio Coding 3
Mode extension                 : CM (complete main)
Format settings, Endianness    : Big
Codec ID                       : A_AC3
Duration                       : 1h 33mn
Bit rate mode                  : Constant
Bit rate                       : 448 Kbps
Channel(s)                     : 6 channels
Channel positions              : Front: L C R, Side: L R, LFE
Sampling rate                  : 48.0 KHz
Frame rate                     : 31.250 fps (1536 spf)
Compression mode               : Lossy
Stream size                    : 300 MiB (8%)
Language                       : Russian
Default                        : Yes
Forced                         : Yes

Audio #2
ID                             : 3
Format                         : AC-3
Format/Info                    : Audio Coding 3
Mode extension                 : CM (complete main)
Format settings, Endianness    : Big
Codec ID                       : A_AC3
Duration                       : 1h 33mn
Bit rate mode                  : Constant
Bit rate                       : 384 Kbps
Channel(s)                     : 6 channels
Channel positions              : Front: L C R, Side: L R, LFE
Sampling rate                  : 48.0 KHz
Frame rate                     : 31.250 fps (1536 spf)
Compression mode               : Lossy
Stream size                    : 257 MiB (7%)
Language                       : English
Default                        : No
Forced                         : No

Text
ID                             : 4
Format                         : UTF-8
Codec ID                       : S_TEXT/UTF8
Codec ID/Info                  : UTF-8 Plain Text
Duration                       : 1h 25mn
Bit rate                       : 37 bps
Count of elements              : 705
Stream size                    : 23.8 KiB (0%)
Language                       : English
Default                        : No
Forced                         : No

Menu
00:00:00.000                   : en:Opening Sequence
00:05:57.000                   : en:Jesus Dad
00:10:46.000                   : en:Guess you Forgot
00:17:23.000                   : en:Looking for my Dad
00:22:34.000                   : en:Not Hungry
00:29:20.000                   : en:Messy Face
00:33:50.000                   : en:What's This?
00:40:08.000                   : en:Get some water
00:46:32.000                   : en:So many Pies
00:52:03.000                   : en:What to do
01:00:15.000                   : en:Need a favor
01:05:49.000                   : en:Brought a Friend
01:12:04.000                   : en:Wounded in Combat
01:17:10.000                   : en:Its Okay
01:22:10.000                   : en:Come on Dad
01:26:55.000                   : en:End Credits

Скриншоты:



Время раздачи: 24/7 (до 10 скачавших)
   
Торрент: Зарегистрирован [29 янв 2016, 19:00] Скачать торрент
Скачать торрент
О MediaGet
[ Размер 18.09 КБ / Просмотров 90 ]

Статус:
 
Приватный: Нет (DHT включён)
Размер: 3.48 ГБ (3 737 117 457 байт)
   
Аватара пользователя

Администратор
Администратор
 
Раздал: 2.33 ПБ
Скачал: 1.02 ПБ
Ратио: 2.281
Сообщения: 3719
Зарегистрирован: 07 май 2010, 17:29
Medals: 1
Лучший релиз за месяц (1)
  • Личное сообщение
  • ICQ

  • Похожие торренты
    Ответы
    Просмотры
    Последнее сообщение

Вернуться в Зарубежные фильмы (Rip's)

Кто сейчас на конференции

Зарегистрированные пользователи: нет зарегистрированных пользователей

Ресурс не предоставляет электронные версии произведений, а занимается лишь коллекционированием и каталогизацией ссылок, присылаемых и публикуемых на форуме нашими читателями. Если вы являетесь правообладателем какого-либо представленного материала и не желаете чтобы ссылка на него находилась в нашем каталоге, свяжитесь с нами и мы незамедлительно удалим её. Файлы для обмена на трекере предоставлены пользователями сайта, и администрация не несёт ответственности за их содержание. Просьба не заливать файлы, защищенные авторскими правами, а также файлы нелегального содержания!
cron