Чистые руки / Schone Handen (2015) WEB-DLRip [H.264/720p-LQ] скачать торрент

Мировая классика кино, Rip, Рипы, Зарубежные фильмы

Модератор: Модераторы видео

  • Статистика раздачи
Размер: 2.5 ГБ   |  Зарегистрирован: 29 янв 2016, 18:56   |   .torrent скачан: 13 раз
Сидеров: 4  [ 0 байт/сек ]     Личеров: 1  [ 0 байт/сек ]  
Список файлов : Кто скачал : Раздают : Скачивают : Кто благодарил : История : Не раздающие : Запрашивали сидеров : Внешние трекеры 
  

Чистые руки / Schone Handen (2015) WEB-DLRip [H.264/720p-LQ]

Сообщение Админ » 29 янв 2016, 18:56

Чистые руки / Schone Handen (2015) WEB-DLRip

Производство: Нидерланды
Жанр: Триллер, Криминал, Драма

Режиссер: Тьеббо Пеннинг
Актеры: Фредерик Бром, Поал Кайро, Йенне Декле, Нино ден Брейв, Марсель Фабер, Бенте Фоккинс, Сес Гел, Тьеббо Герритсма, Труди Де Йонг, Барт Клевер

Описание:
Эдди и Сильвия живут в Амстердаме и имеют доход от продажи наркотиков. У них двое детей, и всё вроде бы идёт хорошо, но в один прекрасный день Эдди на хвост садится полиция. Сильвия хочет уйти из дома, но Эдди не может ей это позволить — она слишком много знает.



Продолжительность: 01:48:09
Качество видео: WEB-DLRip
Перевод: Двуголосый закадровый, любительский
Реклама: Отсутствует

Видео: AVC/H.264, 1280x532, ~3197 Кбит/с
Аудио: AC3, 2 ch, 192 Кбит/с, CBR
Семпл: Скачать
Код:
Код: Выделить всё
Общее
Уникальный идентификатор                 : 224846879045077842292134152747522325498 (0xA927EF08A248030B90FFAB7BAB05FBFA)
Полное имя                               : D:\FILMЬl\FOX DAMAGED\Clean.Hands.2015.720p.BRRip.x264.AC3-GN2\Chistuie.Ruki.720p.RU.mkv
Формат                                   : Matroska
Версия формата                           : Version 4 / Version 2
Размер файла                             : 2,50 Гбайт
Продолжительность                        : 1 ч. 48 м.
Общий поток                              : 3309 Кбит/сек
Дата кодирования                         : UTC 2016-01-29 14:43:20
Программа кодирования                    : mkvmerge v8.1.0 ('Psychedelic Postcard') 64bit
Библиотека кодирования                   : libebml v1.3.1 + libmatroska v1.4.2
DURATION                                 : 01:48:08.640000000
NUMBER_OF_FRAMES                         : 202770
NUMBER_OF_BYTES                          : 155727360
_STATISTICS_WRITING_APP                  : mkvmerge v8.1.0 ('Psychedelic Postcard') 64bit
_STATISTICS_WRITING_DATE_UTC             : 2016-01-29 14:43:20
_STATISTICS_TAGS                         : BPS DURATION NUMBER_OF_FRAMES NUMBER_OF_BYTES

Видео
Идентификатор                            : 1
Формат                                   : AVC
Формат/Информация                        : Advanced Video Codec
Профиль формата                          :
Параметр CABAC формата                   : Да
Параметр ReFrames формата                : 4 кадра
Идентификатор кодека                     : V_MPEG4/ISO/AVC
Продолжительность                        : 1 ч. 48 м.
Битрейт                                  : 3197 Кбит/сек
Ширина                                   : 1280 пикселей
Высота                                   : 532 пикселя
Соотношение сторон                       : 2,40:1
Режим частоты кадров                     : Постоянный
Частота кадров                           : 23,976 кадра/сек
Цветовое пространство                    : YUV
Субдискретизация насыщенности            : 4:2:0
Битовая глубина                          : 8 бит
Тип развёртки                            : Прогрессивная
Бит/(Пиксели*Кадры)                      : 0.196
Размер потока                            : 2,31 Гбайт (92%)
Библиотека кодирования                   : x264 core 112
Настройки программы                      : cabac=1 / ref=2 / deblock=1:0:0 / analyse=0x1:0x111 / me=hex / subme=6 / psy=1 / psy_rd=1.00:0.00 / mixed_ref=0 / me_range=16 / chroma_me=1 / trellis=0 / 8x8dct=0 / cqm=0 / deadzone=21,11 / fast_pskip=1 / chroma_qp_offset=-2 / threads=6 / sliced_threads=0 / nr=0 / decimate=1 / interlaced=0 / constrained_intra=0 / bframes=2 / b_pyramid=2 / b_adapt=1 / b_bias=0 / direct=1 / weightb=0 / open_gop=0 / weightp=2 / keyint=240 / keyint_min=23 / scenecut=40 / intra_refresh=0 / rc_lookahead=40 / rc=abr / mbtree=1 / bitrate=3197 / ratetol=1.0 / qcomp=0.60 / qpmin=3 / qpmax=51 / qpstep=4 / ip_ratio=1.40 / aq=1:1.00
Язык                                     : English
Default                                  : Да
Forced                                   : Нет
Цветовой диапазон                        : Limited
Основные цвета                           : BT.709
Характеристики трансфера                 : BT.709
Коэффициенты матрицы                     : BT.709

Аудио
Идентификатор                            : 2
Формат                                   : AC-3
Формат/Информация                        : Audio Coding 3
Расширение режима                        : CM (complete main)
Параметр Endianness формата              : Big
Идентификатор кодека                     : A_AC3
Продолжительность                        : 1 ч. 48 м.
Вид битрейта                             : Постоянный
Битрейт                                  : 192 Кбит/сек
Каналы                                   : 2 канала
Расположение каналов                     : Front: L R
Частота                                  : 48,0 КГц
Метод сжатия                             : С потерями
Задержка видео                           : 333 мс.
Размер потока                            : 149 Мбайт (6%)
Язык                                     : Russian
Default                                  : Да
Forced                                   : Нет

Скриншоты:



Время раздачи: C 09:00 до 23:30 до 5 скачавших
   
Торрент: Зарегистрирован [29 янв 2016, 18:56] Скачать торрент
Скачать торрент
О MediaGet
[ Размер 13.32 КБ / Просмотров 63 ]

Статус:
 
Приватный: Нет (DHT включён)
Размер: 2.5 ГБ (2 684 415 078 байт)
   
Аватара пользователя

Администратор
Администратор
 
Раздал: 2.33 ПБ
Скачал: 1.02 ПБ
Ратио: 2.281
Сообщения: 3723
Зарегистрирован: 07 май 2010, 17:29
Medals: 1
Лучший релиз за месяц (1)
  • Личное сообщение
  • ICQ

  • Похожие торренты
    Ответы
    Просмотры
    Последнее сообщение

Вернуться в Зарубежные фильмы (Rip's)

Кто сейчас на конференции

Зарегистрированные пользователи: bigcatwar, ванюшка

Ресурс не предоставляет электронные версии произведений, а занимается лишь коллекционированием и каталогизацией ссылок, присылаемых и публикуемых на форуме нашими читателями. Если вы являетесь правообладателем какого-либо представленного материала и не желаете чтобы ссылка на него находилась в нашем каталоге, свяжитесь с нами и мы незамедлительно удалим её. Файлы для обмена на трекере предоставлены пользователями сайта, и администрация не несёт ответственности за их содержание. Просьба не заливать файлы, защищенные авторскими правами, а также файлы нелегального содержания!
cron