Наше лето / La Belle Saison (2015) HDRip скачать торрент

Мировая классика кино, Rip, Рипы, Зарубежные фильмы

Модератор: Модераторы видео

  • Статистика раздачи
Размер: 1.45 ГБ   |  Зарегистрирован: 29 янв 2016, 18:54   |   .torrent скачан: 17 раз
Сидеров: 778  [ 0 байт/сек ]     Личеров: 58  [ 0 байт/сек ]  
Список файлов : Кто скачал : Раздают : Скачивают : Кто благодарил : История : Не раздающие : Запрашивали сидеров : Внешние трекеры 
  

Наше лето / La Belle Saison (2015) HDRip

Сообщение Админ » 29 янв 2016, 18:54

Наше лето / La Belle Saison (2015) HDRip

Производство: Франция, Бельгия
Жанр: Драма, Мелодрама

Режиссер: Катрин Корсини
Продюсер: Элизабет Перез, Патрик Кине
Актеры: Сесиль Де Франс, Изиа Ижлен, Ноэми Львовски, Жан-Анри Компере, Loulou Hanssen, Кевин Азиз, Бенжамин Беллекур, Летиция Дош, Сара Суко, Калипсо Валуа

Описание:
1971 год. Дельфин 23 года, она родилась в крестьянской семье. В один прекрасный день она уезжает в Париж, чтобы стать финансово независимой. Кароль — парижанка. Ей 35 лет. Она живет с Манюэлем и активно переживает зарождающийся феминизм. Когда Дельфин и Кароль знакомятся друг с другом, их история любви меняет полностью курс их жизни. Но Дельфин вынуждена вернуться на ферму. Кароль сопровождает ее. Здесь им приходится столкнуться с другой реальностью.


Дата мировой премьеры: 6 августа 2015

Продолжительность: 01:45:18
Качество видео: HDRip
Перевод: Двуголосый закадровый, любительский (den904 & DeadSno)
Субтитры: отсутствуют

Видео: Xvid, 720x304, ~1579 kbps
Аудио: AC3, 2 ch, 192 kbps, CBR | Русский (DVO)
Аудио: AC3, 2 ch, 192 kbps, CBR | Французский
Семпл: Скачать
Код:
Код: Выделить всё
Формат : AVI
Формат/Информация : Audio Video Interleave
Размер файла : 1,45 Гбайт
Продолжительность : 1 ч. 45 м.
Общий поток : 1978 Кбит/сек
Программа кодирования : VirtualDubMod 1.5.10.3 | (build 2550/release)
Библиотека кодирования : VirtualDubMod build 2550/release

Видео
Идентификатор : 0
Формат : MPEG-4 Visual
Профиль формата : Advanced [email protected]
Параметр BVOP формата : 1
Параметр QPel формата : Нет
Параметр GMC формата : Без точки перехода
Параметр матрицы формата : Выборочная
Идентификатор кодека : XVID
Идентификатор кодека/Подсказка : XviD
Продолжительность : 1 ч. 45 м.
Битрейт : 1579 Кбит/сек
Ширина : 720 пикселей
Высота : 304 пикселя
Соотношение сторон : 2,35:1
Частота кадров : 23,976 кадра/сек
Цветовое пространство : YUV
Субдискретизация насыщенности : 4:2:0
Битовая глубина : 8 бит
Тип развёртки : Прогрессивная
Метод сжатия : С потерями
Бит/(Пиксели*Кадры) : 0.301
Размер потока : 1,16 Гбайт (80%)
Библиотека кодирования : XviD 73

Аудио #1
Идентификатор : 1
Формат : AC-3
Формат/Информация : Audio Coding 3
Расширение режима : CM (complete main)
Параметр Endianness формата : Big
Идентификатор кодека : 2000
Продолжительность : 1 ч. 45 м.
Вид битрейта : Постоянный
Битрейт : 192 Кбит/сек
Каналы : 2 канала
Расположение каналов : Front: L R
Частота : 48,0 КГц
Метод сжатия : С потерями
Размер потока : 145 Мбайт (10%)
Выравнивание : Разделение по промежуткам
Продолжительность промежутка : 42 мс. (1,00 видеокадр)
Время предзагрузки промежутка : 500 мс.

Аудио #2
Идентификатор : 2
Формат : AC-3
Формат/Информация : Audio Coding 3
Расширение режима : CM (complete main)
Параметр Endianness формата : Big
Идентификатор кодека : 2000
Продолжительность : 1 ч. 45 м.
Вид битрейта : Постоянный
Битрейт : 192 Кбит/сек
Каналы : 2 канала
Расположение каналов : Front: L R
Частота : 48,0 КГц
Метод сжатия : С потерями
Размер потока : 145 Мбайт (10%)
Выравнивание : Разделение по промежуткам
Продолжительность промежутка : 42 мс. (1,00 видеокадр)
Время предзагрузки промежутка : 500 мс.

Скриншоты:



Время раздачи: По мере возможности..(до первых скачавших)
   
Торрент: Зарегистрирован [29 янв 2016, 18:54] Скачать торрент
Скачать торрент
О MediaGet
[ Размер 15.33 КБ / Просмотров 87 ]

Статус:
 
Приватный: Нет (DHT включён)
Размер: 1.45 ГБ (1 562 048 512 байт)
   
Аватара пользователя

Администратор
Администратор
 
Раздал: 2.33 ПБ
Скачал: 1.02 ПБ
Ратио: 2.281
Сообщения: 3719
Зарегистрирован: 07 май 2010, 17:29
Medals: 1
Лучший релиз за месяц (1)
  • Личное сообщение
  • ICQ

  • Похожие торренты
    Ответы
    Просмотры
    Последнее сообщение

Вернуться в Зарубежные фильмы (Rip's)

Кто сейчас на конференции

Зарегистрированные пользователи: нет зарегистрированных пользователей

Ресурс не предоставляет электронные версии произведений, а занимается лишь коллекционированием и каталогизацией ссылок, присылаемых и публикуемых на форуме нашими читателями. Если вы являетесь правообладателем какого-либо представленного материала и не желаете чтобы ссылка на него находилась в нашем каталоге, свяжитесь с нами и мы незамедлительно удалим её. Файлы для обмена на трекере предоставлены пользователями сайта, и администрация не несёт ответственности за их содержание. Просьба не заливать файлы, защищенные авторскими правами, а также файлы нелегального содержания!
cron