Затмение / Regression (2015) BDRip скачать торрент

Мировая классика кино, Rip, Рипы, Зарубежные фильмы

Модератор: Модераторы видео

  • Статистика раздачи
Размер: 7.94 ГБ   |  Зарегистрирован: 26 янв 2016, 16:36   |   .torrent скачан: 14 раз
Сидеров: 279  [ 0 байт/сек ]     Личеров: 7  [ 0 байт/сек ]  
Список файлов : Кто скачал : Раздают : Скачивают : Кто благодарил : История : Не раздающие : Запрашивали сидеров : Внешние трекеры 
  

Затмение / Regression (2015) BDRip

Сообщение Админ » 26 янв 2016, 16:36

Затмение / Regression (2015) BDRip

Производство: Испания, Канада, FilmNation Entertainment, First Generation Films, Himenóptero
Жанр: Ужасы, Триллер, Детектив

Режиссер: Алехандро Аменабар
Актеры: Эмма Уотсон, Итэн Хоук, Дэвид Тьюлис, Девон Бостик, Аарон Эшмор, Дейл Дикки, Давид Денсик, Адам Батчер, Кристиан Бруун, Аарон Абрамс

Описание:
В ходе расследования дела Анджелы Грей детектив Брюс Киннер вынужден обратиться к психологу для выявления ее подавленных воспоминаний. Сеанс регрессивного гипноза открывает ужасающие факты — по ночам с согласия отца над девушкой проводились сатанинские ритуалы. Желая защитить девушку от преследования зловещего тайного общества, детектив оказывается втянут в пугающий мир оккультизма. То, что ему противостоит, находится за гранью понимания и способно бросить вызов его убеждениям и вере.



Дата мировой премьеры: 18 сентября 2015
Дата премьеры в России: 4 февраля 2016

Продолжительность: 01:46:00
Качество видео: BDRip
Перевод: Многоголосый закадровый
Автор перевода: Victory-Films

Видео: AVC/H.264, 1920x808, ~8816 Кбит/с
Аудио: Русский (AC3, 6 ch, 384 Кбит/с), Aнглийский (DTS, 6 ch, 1510 Кбит/с)
Код:
Код: Выделить всё
Общее
Уникальный идентификатор                 : 246615540470737886916146054983509824041 (0xB9886CE7F500F3CB8B0DDA52B2575229)
Полное имя                               : D:\Не отсортировано\Regression.2015.MVO.BDRip.1080p.mkv
Формат                                   : Matroska
Версия формата                           : Version 2
Размер файла                             : 7,94 Гбайт
Продолжительность                        : 1 ч. 46 м.
Общий поток                              : 10,7 Мбит/сек
Дата кодирования                         : UTC 2016-01-25 18:38:28
Программа кодирования                    : mkvmerge v8.3.0 ('Over the Horizon') 64bit
Библиотека кодирования                   : libebml v1.3.1 + libmatroska v1.4.2

Видео
Идентификатор                            : 1
Формат                                   : AVC
Формат/Информация                        : Advanced Video Codec
Профиль формата                          :
Параметр CABAC формата                   : Да
Параметр ReFrames формата                : 5 кадров
Идентификатор кодека                     : V_MPEG4/ISO/AVC
Продолжительность                        : 1 ч. 46 м.
Битрейт                                  : 8816 Кбит/сек
Ширина                                   : 1920 пикселей
Высота                                   : 808 пикселей
Соотношение сторон                       : 2,40:1
Режим частоты кадров                     : Постоянный
Частота кадров                           : 23,976 (24000/1001) кадра/сек
Цветовое пространство                    : YUV
Субдискретизация насыщенности            : 4:2:0
Битовая глубина                          : 8 бит
Тип развёртки                            : Прогрессивная
Бит/(Пиксели*Кадры)                      : 0.237
Размер потока                            : 6,53 Гбайт (82%)
Библиотека кодирования                   : x264 core 148 r2638 7599210
Настройки программы                      : cabac=1 / ref=5 / deblock=1:-3:-3 / analyse=0x3:0x113 / me=umh / subme=8 / psy=1 / psy_rd=1.00:0.00 / mixed_ref=1 / me_range=16 / chroma_me=1 / trellis=1 / 8x8dct=1 / cqm=0 / deadzone=21,11 / fast_pskip=1 / chroma_qp_offset=-2 / threads=12 / lookahead_threads=2 / sliced_threads=0 / nr=0 / decimate=1 / interlaced=0 / bluray_compat=0 / constrained_intra=0 / bframes=3 / b_pyramid=2 / b_adapt=2 / b_bias=0 / direct=3 / weightb=1 / open_gop=0 / weightp=2 / keyint=240 / keyint_min=24 / scenecut=40 / intra_refresh=0 / rc_lookahead=50 / rc=2pass / mbtree=1 / bitrate=8816 / ratetol=1.0 / qcomp=0.60 / qpmin=0 / qpmax=69 / qpstep=4 / cplxblur=20.0 / qblur=0.5 / ip_ratio=1.40 / aq=1:1.00
Default                                  : Нет
Forced                                   : Нет

Аудио #1
Идентификатор                            : 2
Формат                                   : AC-3
Формат/Информация                        : Audio Coding 3
Расширение режима                        : CM (complete main)
Параметр Endianness формата              : Big
Идентификатор кодека                     : A_AC3
Продолжительность                        : 1 ч. 46 м.
Вид битрейта                             : Постоянный
Битрейт                                  : 384 Кбит/сек
Каналы                                   : 6 каналов
Расположение каналов                     : Front: L C R, Side: L R, LFE
Частота                                  : 48,0 КГц
Частота кадров                           : 31,250 кадров/сек (1536 spf)
Метод сжатия                             : С потерями
Размер потока                            : 291 Мбайт (4%)
Default                                  : Нет
Forced                                   : Нет

Аудио #2
Идентификатор                            : 3
Формат                                   : DTS
Формат/Информация                        : Digital Theater Systems
Режим                                    : 16
Параметр Endianness формата              : Big
Идентификатор кодека                     : A_DTS
Продолжительность                        : 1 ч. 46 м.
Вид битрейта                             : Постоянный
Битрейт                                  : 1509 Кбит/сек
Каналы                                   : 6 каналов
Расположение каналов                     : Front: L C R, Side: L R, LFE
Частота                                  : 48,0 КГц
Частота кадров                           : 93,750 кадра/сек (512 spf)
Битовая глубина                          : 24 бит
Метод сжатия                             : С потерями
Размер потока                            : 1,12 Гбайт (14%)
Язык                                     : English
Default                                  : Нет
Forced                                   : Нет

Текст #1
Идентификатор                            : 4
Формат                                   : UTF-8
Идентификатор кодека                     : S_TEXT/UTF8
Идентификатор кодека/Информация          : UTF-8 Plain Text
Продолжительность                        : 1 ч. 37 м.
Битрейт                                  : 54 бит/сек
Count of elements                        : 1037
Размер потока                            : 39,0 Кбайт (0%)
Язык                                     : English
Default                                  : Нет
Forced                                   : Нет

Текст #2
Идентификатор                            : 5
Формат                                   : UTF-8
Идентификатор кодека                     : S_TEXT/UTF8
Идентификатор кодека/Информация          : UTF-8 Plain Text
Продолжительность                        : 1 ч. 37 м.
Битрейт                                  : 56 бит/сек
Count of elements                        : 1080
Размер потока                            : 40,3 Кбайт (0%)
Заголовок                                : SDH
Язык                                     : English
Default                                  : Нет
Forced                                   : Нет

Меню
00:00:00.000                             : en:00:00:00.000
00:12:13.608                             : en:00:12:13.608
00:19:55.528                             : en:00:19:55.528
00:29:56.169                             : en:00:29:56.169
00:39:52.098                             : en:00:39:52.098
00:48:11.388                             : en:00:48:11.388
00:57:51.760                             : en:00:57:51.760
01:09:43.137                             : en:01:09:43.137
01:16:52.942                             : en:01:16:52.942
01:23:58.450                             : en:01:23:58.450
01:30:00.979                             : en:01:30:00.979
01:36:06.552                             : en:01:36:06.552

Скриншоты:

   
Торрент: Зарегистрирован [26 янв 2016, 16:36] За каждые 2 ГБ. аплоада (сидирования) этого торрента начисляется бонус: 0.001 Скачать торрент
Скачать торрент
О MediaGet
[ Размер 20.51 КБ / Просмотров 118 ]

Статус:
 
Приватный: Нет (DHT включён)
Размер: 7.94 ГБ (8 521 400 385 байт)
   
Аватара пользователя

Администратор
Администратор
 
Раздал: 2.33 ПБ
Скачал: 1.02 ПБ
Ратио: 2.281
Сообщения: 3723
Зарегистрирован: 07 май 2010, 17:29
Medals: 1
Лучший релиз за месяц (1)
  • Личное сообщение
  • ICQ

  • Похожие торренты
    Ответы
    Просмотры
    Последнее сообщение

Вернуться в Зарубежные фильмы (Rip's)

Кто сейчас на конференции

Зарегистрированные пользователи: bigcatwar, ванюшка

Ресурс не предоставляет электронные версии произведений, а занимается лишь коллекционированием и каталогизацией ссылок, присылаемых и публикуемых на форуме нашими читателями. Если вы являетесь правообладателем какого-либо представленного материала и не желаете чтобы ссылка на него находилась в нашем каталоге, свяжитесь с нами и мы незамедлительно удалим её. Файлы для обмена на трекере предоставлены пользователями сайта, и администрация не несёт ответственности за их содержание. Просьба не заливать файлы, защищенные авторскими правами, а также файлы нелегального содержания!
cron