Выжить в Арктике / Operasjon Arktis (2014) BDRip [H.264/720p] скачать торрент

Мировая классика кино, Rip, Рипы, Зарубежные фильмы

Модератор: Модераторы видео

  • Статистика раздачи
Размер: 4.49 ГБ   |  Зарегистрирован: 24 янв 2016, 04:40   |   .torrent скачан: 14 раз
Сидеров: 64  [ 0 байт/сек ]     Личеров: 3  [ 0 байт/сек ]  
Список файлов : Кто скачал : Раздают : Скачивают : Кто благодарил : История : Не раздающие : Запрашивали сидеров : Внешние трекеры 
  

Выжить в Арктике / Operasjon Arktis (2014) BDRip [H.264/720p]

Сообщение Админ » 24 янв 2016, 04:40

Выжить в Арктике / Operasjon Arktis (2014) BDRip [H.264/720p]

Производство: Норвегия
Жанр: Приключения, Семейный

Режиссер: Грете Бё-Воль
Актеры: Кайса Гюрен Антонсен, Ларс Аренц-Хансен, Николай Клеве Брош, Леонард Валестранд Эйке, Кристофер Хивью, Пер Кьерштад Андерсен, Иви Кассет Ростен, Лине Верндаль

Описание:
Трое детей — 13-летняя Юлия вместе с сестрой и братом оказались во льдах суровой Арктики неподалеку от Шпицбергена. Им предстоит бороться с непогодой, спасаться от белых медведей и искать пропитание. Современная история о робинзонах посреди величественной и морозно опасной природы.



Продолжительность: 01:30:41
Качество видео: BDRip [profile LQ]
Перевод: Двуголосый закадровый, любительский

Видео: AVC/H.264, 1280x536, ~5387 Kbps
Аудио: AC3, 2 ch, 192 Kbps | Russian
Аудио 2: DTS, 6 ch, 1 509 Kbps | Norwegian
Семпл: Скачать
Код:
Код: Выделить всё
General
Unique ID                      : 188700869868306934116626760327094417285 (0x8DF67730532B4ADFB3A29A54C6D53785)
Complete name                  : \Operasjon.Arktis.2014.720p.BDRip.NNM-CLUB.mkv
Format                         : Matroska
Format version                 : Version 4 / Version 2
File size                      : 4.49 GiB
Duration                       : 1h 30mn
Overall bit rate               : 7 089 Kbps
Encoded date                   : UTC 2015-10-12 04:45:04
Writing application            : mkvmerge v7.4.0 ('Circles') 64bit built on Dec 12 2014 12:19:56
Writing library                : libebml v1.3.0 + libmatroska v1.4.1
DURATION                       : 01:30:39.808000000
NUMBER_OF_FRAMES               : 169994
NUMBER_OF_BYTES                : 130555392
_STATISTICS_WRITING_APP        : mkvmerge v7.4.0 ('Circles') 64bit built on Dec 12 2014 12:19:56
_STATISTICS_WRITING_DATE_UTC   : 2015-10-12 04:45:04
_STATISTICS_TAGS               : BPS DURATION NUMBER_OF_FRAMES NUMBER_OF_BYTES

Video
ID                             : 1
Format                         : AVC
Format/Info                    : Advanced Video Codec
Format profile                 :
Format settings, CABAC         : Yes
Format settings, ReFrames      : 5 frames
Codec ID                       : V_MPEG4/ISO/AVC
Duration                       : 1h 30mn
Bit rate                       : 5 387 Kbps
Width                          : 1 280 pixels
Height                         : 536 pixels
Display aspect ratio           : 2.40:1
Frame rate mode                : Constant
Frame rate                     : 24.000 fps
Color space                    : YUV
Chroma subsampling             : 4:2:0
Bit depth                      : 8 bits
Scan type                      : Progressive
Bits/(Pixel*Frame)             : 0.327
Stream size                    : 3.32 GiB (74%)
Writing library                : x264 core 144 r2525 40bb568
Encoding settings              : cabac=1 / ref=5 / deblock=1:0:0 / analyse=0x3:0x133 / me=umh / subme=7 / psy=1 / psy_rd=1.00:0.00 / mixed_ref=1 / me_range=16 / chroma_me=1 / trellis=1 / 8x8dct=1 / cqm=0 / deadzone=21,11 / fast_pskip=0 / chroma_qp_offset=-2 / threads=12 / lookahead_threads=2 / sliced_threads=0 / nr=0 / decimate=1 / interlaced=0 / bluray_compat=0 / constrained_intra=0 / bframes=3 / b_pyramid=2 / b_adapt=1 / b_bias=0 / direct=1 / weightb=1 / open_gop=0 / weightp=2 / keyint=250 / keyint_min=24 / scenecut=40 / intra_refresh=0 / rc_lookahead=40 / rc=2pass / mbtree=1 / bitrate=5387 / ratetol=1.0 / qcomp=0.60 / qpmin=0 / qpmax=69 / qpstep=4 / cplxblur=20.0 / qblur=0.5 / ip_ratio=1.40 / aq=1:1.00
Language                       : Norwegian
Default                        : Yes
Forced                         : No
DURATION                       : 01:30:40.542000000
NUMBER_OF_FRAMES               : 130573
NUMBER_OF_BYTES                : 3662334219
_STATISTICS_WRITING_APP        : mkvmerge v7.4.0 ('Circles') 64bit built on Dec 12 2014 12:19:56
_STATISTICS_WRITING_DATE_UTC   : 2015-10-12 04:45:04
_STATISTICS_TAGS               : BPS DURATION NUMBER_OF_FRAMES NUMBER_OF_BYTES

Audio #1
ID                             : 2
Format                         : AC-3
Format/Info                    : Audio Coding 3
Mode extension                 : CM (complete main)
Format settings, Endianness    : Big
Codec ID                       : A_AC3
Duration                       : 1h 30mn
Bit rate mode                  : Constant
Bit rate                       : 192 Kbps
Channel(s)                     : 2 channels
Channel positions              : Front: L R
Sampling rate                  : 48.0 KHz
Bit depth                      : 16 bits
Compression mode               : Lossy
Stream size                    : 125 MiB (3%)
Language                       : Russian
Default                        : Yes
Forced                         : No

Audio #2
ID                             : 3
Format                         : DTS
Format/Info                    : Digital Theater Systems
Mode                           : 16
Format settings, Endianness    : Big
Codec ID                       : A_DTS
Duration                       : 1h 30mn
Bit rate mode                  : Constant
Bit rate                       : 1 509 Kbps
Channel(s)                     : 6 channels
Channel positions              : Front: L C R, Side: L R, LFE
Sampling rate                  : 48.0 KHz
Bit depth                      : 24 bits
Compression mode               : Lossy
Stream size                    : 979 MiB (21%)
Language                       : Norwegian
Default                        : No
Forced                         : No

Скриншоты:



Время раздачи: с 8:00 до 12:00 по мск
   
Торрент: Зарегистрирован [24 янв 2016, 04:40] Скачать торрент
Скачать торрент
О MediaGet
[ Размер 23.18 КБ / Просмотров 102 ]

Статус:
 
Приватный: Нет (DHT включён)
Размер: 4.49 ГБ (4 820 714 472 байт)
   
Аватара пользователя

Администратор
Администратор
 
Раздал: 2.33 ПБ
Скачал: 1.02 ПБ
Ратио: 2.281
Сообщения: 3719
Зарегистрирован: 07 май 2010, 17:29
Medals: 1
Лучший релиз за месяц (1)
  • Личное сообщение
  • ICQ

  • Похожие торренты
    Ответы
    Просмотры
    Последнее сообщение

Вернуться в Зарубежные фильмы (Rip's)

Кто сейчас на конференции

Зарегистрированные пользователи: нет зарегистрированных пользователей

Ресурс не предоставляет электронные версии произведений, а занимается лишь коллекционированием и каталогизацией ссылок, присылаемых и публикуемых на форуме нашими читателями. Если вы являетесь правообладателем какого-либо представленного материала и не желаете чтобы ссылка на него находилась в нашем каталоге, свяжитесь с нами и мы незамедлительно удалим её. Файлы для обмена на трекере предоставлены пользователями сайта, и администрация не несёт ответственности за их содержание. Просьба не заливать файлы, защищенные авторскими правами, а также файлы нелегального содержания!
cron