Любите Куперов / Love the Coopers (2015) WEBRip [Звук c CAMRip] скачать торрент

Мировая классика кино, Rip, Рипы, Зарубежные фильмы

Модератор: Модераторы видео

  • Статистика раздачи
Размер: 1.45 ГБ   |  Зарегистрирован: 17 янв 2016, 00:07   |   .torrent скачан: 3 раз
Сидеров: 192  [ 0 байт/сек ]     Личеров: 8  [ 0 байт/сек ]  
Список файлов : Кто скачал : Раздают : Скачивают : Кто благодарил : История : Не раздающие : Запрашивали сидеров : Внешние трекеры 
  

Любите Куперов / Love the Coopers (2015) WEBRip [Звук c CAMRip]

Сообщение Админ » 17 янв 2016, 00:08

Любите Куперов / Love the Coopers (2015) WEBRip

Производство: США
Жанр: Комедия

Режиссер: Джесси Нельсон
Продюсеры: Брайан Грейзер, Майкл Лондон, Джесси Нельсон
Актеры: Дайан Китон, Джон Гудман, Эд Хелмс, Алекс Борштейн, Тимоти Чаламет, Максвелл Симкинс, Блейк Баумгартнер, Аманда Сайфред, Алан Аркин, Дэн Амбойер

Описание:
Феерическая рождественская Комедия о том, что бывает, когда на праздник собираются представители четырех поколений одной большой семьи…


Дата мировой премьеры: 4 ноября 2015
Дата премьеры в России: 10 декабря 2015, «Парадиз»

Продолжительность: 01:39:10
Качество видео: WEBRip
Перевод: Дублированный (Звук с CAMRip)
Субтитры: Отсутствуют
Реклама: Присутствуют голосовые и текстовые вставки рекламы.

Видео: XviD, 720x304, ~1898 kbps
Аудио: AC-3, 2 ch, 192 kbps
Код:
Код: Выделить всё
Общее
Полное имя                               : N:\Любите Куперов (2015)WEBRip.avi
Формат                                   : AVI
Формат/Информация                        : Audio Video Interleave
Размер файла                             : 1,45 Гбайт
Продолжительность                        : 1 ч. 39 м.
Общий поток                              : 2100 Кбит/сек
Программа кодирования                    : VirtualDubMod 1.5.10.3 | (build 2550/release)
Библиотека кодирования                   : VirtualDubMod build 2550/release

Видео
Идентификатор                            : 0
Формат                                   : MPEG-4 Visual
Профиль формата                          : Advanced [email protected]
Параметр BVOP формата                    : 2
Параметр QPel формата                    : Нет
Параметр GMC формата                     : Без точки перехода
Параметр матрицы формата                 : Default (MPEG)
Идентификатор кодека                     : XVID
Идентификатор кодека/Подсказка           : XviD
Продолжительность                        : 1 ч. 39 м.
Битрейт                                  : 1898 Кбит/сек
Ширина                                   : 720 пикселей
Высота                                   : 304 пикселя
Соотношение сторон                       : 2,35:1
Частота кадров                           : 25,000 кадров/сек
Цветовое пространство                    : YUV
Субдискретизация насыщенности            : 4:2:0
Битовая глубина                          : 8 бит
Тип развёртки                            : Прогрессивная
Метод сжатия                             : С потерями
Бит/(Пиксели*Кадры)                      : 0.347
Размер потока                            : 1,32 Гбайт (90%)
Библиотека кодирования                   : XviD 1.2.1 (UTC 2008-12-04)

Аудио
Идентификатор                            : 1
Формат                                   : AC-3
Формат/Информация                        : Audio Coding 3
Расширение режима                        : CM (complete main)
Параметр Endianness формата              : Big
Идентификатор кодека                     : 2000
Продолжительность                        : 1 ч. 39 м.
Вид битрейта                             : Постоянный
Битрейт                                  : 192 Кбит/сек
Каналы                                   : 2 канала
Расположение каналов                     : Front: L R
Частота                                  : 48,0 КГц
Частота кадров                           : 31,250 кадров/сек (1536 spf)
Метод сжатия                             : С потерями
Размер потока                            : 136 Мбайт (9%)
Выравнивание                             : Разделение по промежуткам
Продолжительность промежутка             : 40  мс. (1,00 видеокадр)
Время предзагрузки промежутка            : 500  мс.

Скриншоты:



Время раздачи: 24/7. До первых 10 скачавших.
   
Торрент: Зарегистрирован [17 янв 2016, 00:07] Скачать торрент
Скачать торрент
О MediaGet
[ Размер 15.38 КБ / Просмотров 98 ]

Статус:
 
Приватный: Нет (DHT включён)
Размер: 1.45 ГБ (1 562 138 624 байт)
   
Аватара пользователя

Администратор
Администратор
 
Раздал: 2.33 ПБ
Скачал: 1.02 ПБ
Ратио: 2.281
Сообщения: 3723
Зарегистрирован: 07 май 2010, 17:29
Medals: 1
Лучший релиз за месяц (1)
  • Личное сообщение
  • ICQ

Вернуться в Зарубежные фильмы (Rip's)

Кто сейчас на конференции

Зарегистрированные пользователи: bigcatwar

Ресурс не предоставляет электронные версии произведений, а занимается лишь коллекционированием и каталогизацией ссылок, присылаемых и публикуемых на форуме нашими читателями. Если вы являетесь правообладателем какого-либо представленного материала и не желаете чтобы ссылка на него находилась в нашем каталоге, свяжитесь с нами и мы незамедлительно удалим её. Файлы для обмена на трекере предоставлены пользователями сайта, и администрация не несёт ответственности за их содержание. Просьба не заливать файлы, защищенные авторскими правами, а также файлы нелегального содержания!
cron