Вернуть отправителю / Return to Sender (2015) HDRip [Line] скачать торрент

Мировая классика кино, Rip, Рипы, Зарубежные фильмы

Модератор: Модераторы видео

  • Статистика раздачи
Размер: 1.46 ГБ   |  Зарегистрирован: 15 янв 2016, 23:05   |   .torrent скачан: 15 раз
Сидеров: 256  [ 0 байт/сек ]     Личеров: 41  [ 0 байт/сек ]  
Список файлов : Кто скачал : Раздают : Скачивают : Кто благодарил : История : Не раздающие : Запрашивали сидеров : Внешние трекеры 
  

Вернуть отправителю / Return to Sender (2015) HDRip [Line]

Сообщение Админ » 15 янв 2016, 23:05

Вернуть отправителю / Return to Sender (2015) HDRip

Производство: США / Boo Pictures
Жанр: Триллер

Режиссер: Фоад Микати
Продюсер: Кэндис Абела, Холли Вирсма, Лорен Братман
Актеры: Розамунд Пайк, Шайло Фернандес, Ник Нолти, Камрин Менхейм, Алекси Вассер, Румер Уиллис, Иллиана Даглас, Стивен Луис Граш, Донна ДюПлантье, Йен Барфорд

Описание:
Миранда Уэллс — медсестра в небольшой больнице, все свое время посвящающая работе, от чего, естественно, у нее ни семьи, ни детей. Время-то летит, и, несмотря на красивую внешность и обделенную целлюлитом фигуру, Миранда задумывается о семейном будущем, посему и соглашается на свидание вслепую. Однако, новоиспеченный кавалер, как гром среди ясного неба, решает нагрянуть без предупреждения, а после понимания того факта, что ему здесь не особо рады, и вовсе решается на изнасилование. Парню-то что — сунул-высунул-пошел, а красавица Миранда не может найти сил после случившегося, чтобы вернуться к нормальной жизни, да и может ли вообще это случиться?..


Дата мировой премьеры: 22 мая 2015
Дата премьеры в России:24 сентября 2015, «Top Film Distribution»

Продолжительность: 01:35:27
Качество видео: HDRip
Перевод: Профессиональный многоголосый (Чистый звук)
Субтитры: Отсутствуют
Реклама: Присутствуют голосовые и текстовые вставки рекламы.

Видео: XviD, 720x384, ~ 1970 kbps
Аудио: AC3, 2 ch, ~ 192 kbps
Код:
Код: Выделить всё
Общее
Полное имя                               : D:\films\vernut.otpravitelu.avi
Формат                                   : AVI
Формат/Информация                        : Audio Video Interleave
Размер файла                             : 1,46 Гбайт
Продолжительность                        : 1 ч. 36 м.
Общий поток                              : 2171 Кбит/сек
Программа кодирования                    : VirtualDubMod 1.5.10.3 | [url=http://www.virtualdub-fr.org]www.virtualdub-fr.org[/url] || (build 2550/release)
Библиотека кодирования                   : VirtualDubMod build 2550/release

Видео
Идентификатор                            : 0
Формат                                   : MPEG-4 Visual
Профиль формата                          : Advanced [email protected]
Параметр BVOP формата                    : 2
Параметр QPel формата                    : Нет
Параметр GMC формата                     : Без точки перехода
Параметр матрицы формата                 : Default (MPEG)
Идентификатор кодека                     : XVID
Идентификатор кодека/Подсказка           : XviD
Продолжительность                        : 1 ч. 36 м.
Битрейт                                  : 1970 Кбит/сек
Ширина                                   : 720 пикселей
Высота                                   : 384 пикселя
Соотношение сторон                       : 1,85:1
Частота кадров                           : 23,976 (24000/1001) кадра/сек
Цветовое пространство                    : YUV
Субдискретизация насыщенности            : 4:2:0
Битовая глубина                          : 8 бит
Тип развёртки                            : Прогрессивная
Метод сжатия                             : С потерями
Бит/(Пиксели*Кадры)                      : 0.297
Размер потока                            : 1,32 Гбайт (91%)
Библиотека кодирования                   : XviD 1.2.1 (UTC 2008-12-04)

Аудио
Идентификатор                            : 1
Формат                                   : AC-3
Формат/Информация                        : Audio Coding 3
Расширение режима                        : CM (complete main)
Параметр Endianness формата              : Big
Идентификатор кодека                     : 2000
Продолжительность                        : 1 ч. 36 м.
Вид битрейта                             : Постоянный
Битрейт                                  : 192 Кбит/сек
Каналы                                   : 2 канала
Расположение каналов                     : Front: L R
Частота                                  : 48,0 КГц
Частота кадров                           : 31,250 кадров/сек (1536 spf)
Метод сжатия                             : С потерями
Размер потока                            : 132 Мбайт (9%)
Выравнивание                             : Разделение по промежуткам
Продолжительность промежутка             : 42  мс. (1,00 видеокадр)
Время предзагрузки промежутка            : 500  мс.


Скриншоты:


Время раздачи: 24/7 (круглосуточно) до первых скачавших
   
Торрент: Зарегистрирован [15 янв 2016, 23:05] Скачать торрент
Скачать торрент
О MediaGet
[ Размер 15.27 КБ / Просмотров 85 ]

Статус:
 
Приватный: Нет (DHT включён)
Размер: 1.46 ГБ (1 563 623 424 байт)
   
Аватара пользователя

Администратор
Администратор
 
Раздал: 2.33 ПБ
Скачал: 1.02 ПБ
Ратио: 2.281
Сообщения: 3719
Зарегистрирован: 07 май 2010, 17:29
Medals: 1
Лучший релиз за месяц (1)
  • Личное сообщение
  • ICQ

  • Похожие торренты
    Ответы
    Просмотры
    Последнее сообщение

Вернуться в Зарубежные фильмы (Rip's)

Кто сейчас на конференции

Зарегистрированные пользователи: нет зарегистрированных пользователей

Ресурс не предоставляет электронные версии произведений, а занимается лишь коллекционированием и каталогизацией ссылок, присылаемых и публикуемых на форуме нашими читателями. Если вы являетесь правообладателем какого-либо представленного материала и не желаете чтобы ссылка на него находилась в нашем каталоге, свяжитесь с нами и мы незамедлительно удалим её. Файлы для обмена на трекере предоставлены пользователями сайта, и администрация не несёт ответственности за их содержание. Просьба не заливать файлы, защищенные авторскими правами, а также файлы нелегального содержания!
cron