Безумные преподы: Миссия в Лондон / Les profs 2 (2015) HDRip скачать торрент

Мировая классика кино, Rip, Рипы, Зарубежные фильмы

Модератор: Модераторы видео

  • Статистика раздачи
Размер: 1.37 ГБ   |  Зарегистрирован: 15 янв 2016, 02:20   |   .torrent скачан: 16 раз
Сидеров: 153  [ 0 байт/сек ]     Личеров: 3  [ 0 байт/сек ]  
Список файлов : Кто скачал : Раздают : Скачивают : Кто благодарил : История : Не раздающие : Запрашивали сидеров : Внешние трекеры 
  

Безумные преподы: Миссия в Лондон / Les profs 2 (2015) HDRip

Сообщение Админ » 15 янв 2016, 02:20

Безумные преподы: Миссия в Лондон / Les profs 2 (2015) HDRip

Производство: Франция
Жанр: Комедия

Режиссер: Пьер-Франсуа Мартен-Лаваль
Продюсер: Ромен Ройтман
Актеры: Кев Адамс, Изабель Нанти, Дидье Бурдон, Пьер-Франсуа Мартен-Лаваль, Арно Дюкре, Стефи Сельма, Раймон Бошар, Фред Туш, Гайя Уайсс, Том Хадсон

Описание:
Лучшие из худших преподавателей Пятой Республики собираются отправиться в лучшую школу туманного альбиона, чтобы продемонстрировать свою уникальную методику ученикам Великобритании. Французские учителя вызывают у своих новых подопечных неоднозначную реакцию. Ведь английские школьники впервые столкнулись с таким сумасшествием...


Дата мировой премьеры: 1 июля 2015
Дата премьеры в России: 24 декабря 2015, «Cinema Prestige»

Продолжительность: 01:32:34
Качество видео: HDRip
Перевод: Двуголосый закадровый, любительский
Озвучка / Автор перевода: Parovoz Production
Вид субтитров: Отсутствуют
Реклама: Присутствуют голосовые и видео вставки рекламы.

Видео: Xvid, 720x304, ~1910 Кбит/с
Аудио: AC3, 2 ch, 192 Кбит/с, CBR
Семпл: Скачать
Код:
Код: Выделить всё
Общее
Полное имя                               : D:\KINO 3\ABCEICO\Bezumnie.Prepodii.avi
Формат                                   : AVI
Формат/Информация                        : Audio Video Interleave
Размер файла                             : 1,37 Гбайт
Продолжительность                        : 1 ч. 32 м.
Общий поток                              : 2111 Кбит/сек
Программа кодирования                    : VirtualDubMod 1.5.10.3 | [url=http://www.virtualdub-fr.org]www.virtualdub-fr.org[/url] || (build 2550/release)
Библиотека кодирования                   : VirtualDubMod build 2550/release

Видео
Идентификатор                            : 0
Формат                                   : MPEG-4 Visual
Профиль формата                          : Advanced [email protected]
Параметр BVOP формата                    : 2
Параметр QPel формата                    : Нет
Параметр GMC формата                     : Без точки перехода
Параметр матрицы формата                 : Default (MPEG)
Идентификатор кодека                     : XVID
Идентификатор кодека/Подсказка           : XviD
Продолжительность                        : 1 ч. 32 м.
Битрейт                                  : 1910 Кбит/сек
Ширина                                   : 720 пикселей
Высота                                   : 304 пикселя
Соотношение сторон                       : 2,35:1
Частота кадров                           : 24,000 кадра/сек
Цветовое пространство                    : YUV
Субдискретизация насыщенности            : 4:2:0
Битовая глубина                          : 8 бит
Тип развёртки                            : Прогрессивная
Метод сжатия                             : С потерями
Бит/(Пиксели*Кадры)                      : 0.364
Размер потока                            : 1,23 Гбайт (90%)
Библиотека кодирования                   : XviD 1.2.1 (UTC 2008-12-04)

Аудио
Идентификатор                            : 1
Формат                                   : AC-3
Формат/Информация                        : Audio Coding 3
Расширение режима                        : CM (complete main)
Параметр Endianness формата              : Big
Идентификатор кодека                     : 2000
Продолжительность                        : 1 ч. 32 м.
Вид битрейта                             : Постоянный
Битрейт                                  : 192 Кбит/сек
Каналы                                   : 2 канала
Расположение каналов                     : Front: L R
Частота                                  : 48,0 КГц
Битовая глубина                          : 16 бит
Метод сжатия                             : С потерями
Задержка видео                           : 28 мс.
Размер потока                            : 127 Мбайт (9%)
Выравнивание                             : Разделение по промежуткам
Продолжительность промежутка             : 42  мс. (1,00 видеокадр)
Время предзагрузки промежутка            : 500  мс.

Скриншоты:



Время раздачи: С 09:00 до 23:30 до 5 скачавших
   
Торрент: Зарегистрирован [15 янв 2016, 02:20] Скачать торрент
Скачать торрент
О MediaGet
[ Размер 14.48 КБ / Просмотров 107 ]

Статус:
 
Приватный: Нет (DHT включён)
Размер: 1.37 ГБ (1 465 778 176 байт)
   
Аватара пользователя

Администратор
Администратор
 
Раздал: 2.33 ПБ
Скачал: 1.02 ПБ
Ратио: 2.281
Сообщения: 3723
Зарегистрирован: 07 май 2010, 17:29
Medals: 1
Лучший релиз за месяц (1)
  • Личное сообщение
  • ICQ

  • Похожие торренты
    Ответы
    Просмотры
    Последнее сообщение

Вернуться в Зарубежные фильмы (Rip's)

Кто сейчас на конференции

Зарегистрированные пользователи: bigcatwar

Ресурс не предоставляет электронные версии произведений, а занимается лишь коллекционированием и каталогизацией ссылок, присылаемых и публикуемых на форуме нашими читателями. Если вы являетесь правообладателем какого-либо представленного материала и не желаете чтобы ссылка на него находилась в нашем каталоге, свяжитесь с нами и мы незамедлительно удалим её. Файлы для обмена на трекере предоставлены пользователями сайта, и администрация не несёт ответственности за их содержание. Просьба не заливать файлы, защищенные авторскими правами, а также файлы нелегального содержания!
cron